Скачать через торрент музыку Nosound - Lightdark - 2008, FLAC бесплатно без регистрации torrent

Если у вас наблюдаются проблемы со скриншотами, переходом по ссылками, скачиванием торрентов - проблемы в блокировщике рекламы AdBlock. #хорошегоДня!


Статистика раздачи
Размер:  317 MB   |    Зарегистрирован:  4 года 10 месяцев   |    .torrent скачан:  16 раз   |   
Раздают:  1  
   
Загрузка...
 
Автор Сообщение

Galfimbul

avatar Galfimbul


Nosound - Lightdark

<div align="right"><var class="postImg postImgAligned img-right" title="http://www.fotohost.by/pic_b/12/09/25/2c1ab067fc0cd2b71e0879f946827ddf.JPG"> </var>Жанр: Psychedelic Rock
Страна-производитель диска: Italia
Год издания: 2008
Издатель (лейбл): Burning Shed
Номер по каталогу: bshe0169
Страна: Italia
Аудиокодек: FLAC (*.flac)
Тип рипа: image+.cue
Битрейт аудио: lossless
Продолжительность: 57:42
Источник (релизер): crowluc
Наличие сканов в содержимом раздачи: да

Треклист:

1. About butterflies and children (3:02)
2. Places Remained (4:29)
3. The misplay (4:32)
4. From silence to noise (15:29)
5. Someone starts to fade away (8:55)
6. Kites (8:30)
7. Lightdark (8:45)

Состав:

Giancarlo Erra: vocals, guitars, keyboards
Paolo Martellacci: keyboards, vocals
Gabriele Savini: acoustic guitars
Alessandro Luci: bass
Gigi Zito: drums, vocals

Guest musicians:

Tim Bowness: vocals (5)
Marianne de Chastelaine: cellos (3, 6 & 7)
Exact Audio Copy V0.99 prebeta 4 from 23. January 2008

EAC extraction logfile from 14. March 2009, 23:48

Nosound / Lightdark

Used drive : TSSTcorpCD/DVDW TS-H652M Adapter: 5 ID: 0

Read mode : SecureUtilize accurate stream : YesDefeat audio cache : NoMake use of C2 pointers : No

Read offset correction : 6Overread into Lead-In and Lead-Out : NoFill up missing offset samples with silence : YesDelete leading and trailing silent blocks : NoNull samples used in CRC calculations : NoUsed interface : Native Win32 interface for Win NT & 2000

Used output format : User Defined EncoderSelected bitrate : 768 kBit/sQuality : HighAdd ID3 tag : YesCommand line compressor : C:\Program Files\Exact Audio Copy\FLAC\FLAC.EXEAdditional command line options : -6 -V -T "ARTIST=%a" -T "TITLE=%t" -T "ALBUM=%g" -T "DATE=%y" -T "TRACKNUMBER=%n" -T "GENRE=%m" -T "COMMENT=%e" %s -o %dUse compression offset : 6

TOC of the extracted CD

Track | Start | Length | Start sector | End sector --------------------------------------------------------- 1 | 0:00.00 | 3:01.64 | 0 | 13638 2 | 3:01.64 | 4:29.18 | 13639 | 33831 3 | 7:31.07 | 4:32.37 | 33832 | 54268 4 | 12:03.44 | 15:29.61 | 54269 | 124004 5 | 27:33.30 | 8:55.31 | 124005 | 164160 6 | 36:28.61 | 8:30.62 | 164161 | 202472 7 | 44:59.48 | 8:45.61 | 202473 | 241908

Range status and errors

Selected range

Filename C:\Killer\My Flac\Nosound - Lightdark.wav

Peak level 100.0 % Range quality 100.0 % Copy CRC 4FA9C3B5 Copy OK

No errors occurred

AccurateRip summary

Track 1 accurately ripped (confidence 5) [E39D34F8]Track 2 accurately ripped (confidence 5) [370EBB30]Track 3 accurately ripped (confidence 5) [256BE2D3]Track 4 accurately ripped (confidence 5) [92EB4646]Track 5 accurately ripped (confidence 5) [DCAC2A51]Track 6 accurately ripped (confidence 5) [B37BE368]Track 7 accurately ripped (confidence 5) [0E72069B]

All tracks accurately ripped

End of status report
REM GENRE "Progressive Rock"REM DATE 2008REM DISCID 4F0C9907REM COMMENT "ExactAudioCopy v0.99pb4"PERFORMER "Nosound"TITLE "Lightdark"FILE "Nosound - Lightdark.flac" WAVE TRACK 01 AUDIO TITLE "About Butterflies and Children" PERFORMER "Nosound" INDEX 01 00:00:00 TRACK 02 AUDIO TITLE "Places Remained" PERFORMER "Nosound" INDEX 01 03:01:64 TRACK 03 AUDIO TITLE "The Misplay" PERFORMER "Nosound" INDEX 00 07:31:04 INDEX 01 07:31:07 TRACK 04 AUDIO TITLE "From Silence to Noise" PERFORMER "Nosound" INDEX 00 12:03:42 INDEX 01 12:03:44 TRACK 05 AUDIO TITLE "Someone Starts to Fade Away" PERFORMER "Nosound" INDEX 01 27:33:30 TRACK 06 AUDIO TITLE "Kites" PERFORMER "Nosound" INDEX 01 36:28:61 TRACK 07 AUDIO TITLE "Lightdark" PERFORMER "Nosound" INDEX 01 44:59:48
AUDIOCHECKER v2.0 beta (build 457) - by Dester - <a href="mailto:opdester@freemail.hu" class="postLink">opdester@freemail.hu</a>
~~~~~~~~~~~~~~~~~~~~~~~~~~~~~~~~~~
-=== DO NOT EDIT THIS FILE! ===-

Путь: ...\Music

1 -=- Nosound - Lightdark.flac -=- CDDA (100%)

37308340


Трекер:  [ 27-Сен-2012 19:09 ]

  

Скачать .torrent

Размер .torrent файла 13 KB


Размер: 317 MB
Хэш (hash) релиза: 37674ecf64168687100ba1bc64329230528509fb

Еще никто не оставлял запись к записи скачать торрент Nosound - Lightdark - 2008, FLAC . Будь первым!

!Обратная связь