Скачать через торрент музыку = Echolyn = Echolyn 2012 бесплатно без регистрации torrent

Если у вас наблюдаются проблемы со скриншотами, переходом по ссылками, скачиванием торрентов - проблемы в блокировщике рекламы AdBlock. #хорошегоДня!


Статистика раздачи
Размер:  532 MB   |    Зарегистрирован:  5 лет   |    .torrent скачан:  40 раз   |   
Раздают:  1  
   
Загрузка...
 
Автор Сообщение

Galfimbul

avatar Galfimbul


= Echolyn =
= Echolyn = 2012 (2CD) =

Год выпуска диска: 2012
Производитель диска: USA
Аудио кодек: FLAC
Лейбл: Plane Groovy
Наличие сканов: Full HiRes
Источник: Личная коллекция
Тип рипа: image+.cue
Битрейт аудио: lossless
Трэклист:

1. Island (16:38)
2. Headright (3:00)
3. Locust To Bethlehem (5:11)
4. Some Memorial (11:54)
5. Past Gravity (7:11)
6. When Sunday Spills (8:48)
7. Speaking In Lampblack (10:45)
8. The Cardinal And I (7:20)

Состав:
- Ray Weston / lead & backing vocals
- Brett Kull / guitars, lead & backing vocals
- Chris Buzby / keyboards, backing vocals
- Paul Ramsey / drums, percussion, backing vocals
- Tom Hyatt / bass, backing vocals

Collaborators:
- Nina Beate / violin (1)
- Kaveh Saidi / violin (2)
- Lori Saidi / viola
- Rajli Bicolli / cello
- Mark Gallagher / baritone saxophone
- Jacque Varsalona / backing vocals
EAC Log:
Exact Audio Copy V1.0 beta 3 from 29. August 2011

EAC extraction logfile from 24. September 2012, 14:07

Echolyn / Echolyn (Disc 1)

Used drive : Optiarc DVD RW AD-7203S Adapter: 3 ID: 0

Read mode : Secure
Utilize accurate stream : Yes
Defeat audio cache : Yes
Make use of C2 pointers : No

Read offset correction : 48
Overread into Lead-In and Lead-Out : No
Fill up missing offset samples with silence : Yes
Delete leading and trailing silent blocks : No
Null samples used in CRC calculations : Yes
Used interface : Native Win32 interface for Win NT & 2000

Used output format : User Defined Encoder
Selected bitrate : 896 kBit/s
Quality : High
Add ID3 tag : Yes
Command line compressor : D:\EAC\Flac\flac.exe
Additional command line options : -V -8 -T "Date=%year%" -T "Genre=%genre%" %source%

TOC of the extracted CD

Track | Start | Length | Start sector | End sector
---------------------------------------------------------
1 | 0:00.00 | 16:37.42 | 0 | 74816
2 | 16:37.42 | 2:59.63 | 74817 | 88304
3 | 19:37.30 | 5:11.13 | 88305 | 111642
4 | 24:48.43 | 11:54.29 | 111643 | 165221

Range status and errors

Selected range

Filename E:\Echolyn - Echolyn (Disc 1).wav

Peak level 98.8 %
Extraction speed 3.7 X
Range quality 100.0 %
Test CRC 242CAAC9
Copy CRC 242CAAC9
Copy OK

No errors occurred

AccurateRip summary

Track 1 accurately ripped (confidence 2) [DFDBD28C] (AR v1)
Track 2 accurately ripped (confidence 2) [1E1CD086] (AR v1)
Track 3 accurately ripped (confidence 2) [FF914BB2] (AR v1)
Track 4 accurately ripped (confidence 2) [8B4E5AFF] (AR v1)

All tracks accurately ripped

End of status report

---- CUETools DB Plugin V2.1.3

[CTDB TOCID: 1sltS5LVIlX6SoXOXIgV7I390sM-] found, Submit result: 1sltS5LVIlX6SoXOXIgV7I390sM- has been confirmed
[508ef95f] (5/5) Accurately ripped

==== Log checksum 46F40D5D8AB1A19F17FC9FAF6AEC3F8083988EF3CED707483DE1366AF69FA264 ====
Exact Audio Copy V1.0 beta 3 from 29. August 2011

EAC extraction logfile from 24. September 2012, 14:29

Echolyn / Echolyn (Disc 2)

Used drive : Optiarc DVD RW AD-7203S Adapter: 3 ID: 0

Read mode : Secure
Utilize accurate stream : Yes
Defeat audio cache : Yes
Make use of C2 pointers : No

Read offset correction : 48
Overread into Lead-In and Lead-Out : No
Fill up missing offset samples with silence : Yes
Delete leading and trailing silent blocks : No
Null samples used in CRC calculations : Yes
Used interface : Native Win32 interface for Win NT & 2000

Used output format : User Defined Encoder
Selected bitrate : 896 kBit/s
Quality : High
Add ID3 tag : Yes
Command line compressor : D:\EAC\Flac\flac.exe
Additional command line options : -V -8 -T "Date=%year%" -T "Genre=%genre%" %source%

TOC of the extracted CD

Track | Start | Length | Start sector | End sector
---------------------------------------------------------
1 | 0:00.00 | 7:11.06 | 0 | 32330
2 | 7:11.06 | 8:47.51 | 32331 | 71906
3 | 15:58.57 | 10:45.03 | 71907 | 120284
4 | 26:43.60 | 7:20.21 | 120285 | 153305

Range status and errors

Selected range

Filename E:\Echolyn - Echolyn (Disc 2).wav

Peak level 98.8 %
Extraction speed 3.6 X
Range quality 100.0 %
Test CRC 01F86BC6
Copy CRC 01F86BC6
Copy OK

No errors occurred

AccurateRip summary

Track 1 accurately ripped (confidence 2) [5F880FCC] (AR v1)
Track 2 accurately ripped (confidence 2) [A8F8DD88] (AR v1)
Track 3 accurately ripped (confidence 2) [2780411C] (AR v1)
Track 4 accurately ripped (confidence 2) [4EB09FA8] (AR v1)

All tracks accurately ripped

End of status report

---- CUETools DB Plugin V2.1.3

[CTDB TOCID: Ypw9xz8h2tSrLmehLeIQ9xydtAs-] found, Submit result: Ypw9xz8h2tSrLmehLeIQ9xydtAs- has been confirmed
[673b626b] (6/6) Accurately ripped

==== Log checksum 82E6072A68A82A0B5440620E49A096926A12615A815BE4650423FC6FA9D7B38D ====


Приятного прослушивания! Зарелизено на http://рутраскер


Трекер:  [ 27-Сен-2012 19:09 ]

  

Скачать .torrent

Размер .torrent файла 11 KB


Размер: 532 MB
Хэш (hash) релиза: a512eceadfabad4808b20d4c0376b673ceecc5aa

Торренты, похожие на = Echolyn = Echolyn 2012 скачать торрент

Форум Название Автор Размер S L Добавлен
Зарубежный Rock ·· (Symphonic Prog) Echolyn - Echolyn - 2012 (WEB), FLAC (tracks), lossless Umakiro 547787234522 MB 0 0 1340645100

20:25

25-Июн-12

Зарубежный Rock ·· (Progressive Rock) Echolyn - Echolyn - 2012, MP3, 192 kbps Galfimbul 10355577199 MB 0 0 1340261700

09:55

21-Июн-12

Зарубежный Rock ·· (Progressive Rock) Echolyn - Echolyn (2CD) - 2012, FLAC (tracks+.cue), lossless _N_ 546083424521 MB 0 0 1340778420

09:27

27-Июн-12

Зарубежный Rock ·· (Progressive Rock) Echolyn - Дискография 1991-2012 (12 альбомов), MP3 (tracks), 160-320 kbps. Обновлено 24.06.2012 г. Centner1 21203403251.97 GB 0 0 1340612820

11:27

25-Июн-12

Rосk | Mеtаl | Аltеrnаtivе, Рunk, Indереndеnt (losslеss) ·· (Progressive Rock) [WEB] Echolyn - Singles '12-'13 - 2012-2013, FLAC (tracks), lossless Galfimbul 259181439247 MB 0 0 1387874568

11:42

24-Дек-13

Еще никто не оставлял запись к записи скачать торрент = Echolyn = Echolyn 2012 . Будь первым!

!Обратная связь