Скачать через торрент музыку Steve Stevens - 3 Albums - 3CD бесплатно без регистрации torrent

Если у вас наблюдаются проблемы со скриншотами, переходом по ссылками, скачиванием торрентов - проблемы в блокировщике рекламы AdBlock. #хорошегоДня!


Статистика раздачи
Размер:  1.19 GB   |    Зарегистрирован:  4 года 10 месяцев   |    .torrent скачан:  23 раза   |   
Раздают:  1  
   
Загрузка...
 
Автор Сообщение

Galfimbul

avatar Galfimbul


Steve Stevens
3 Solo Albums - 3CD (1989, 1999, 2008)




Жанр: Hard Rock / Instrumental Rock / Agressive guitar
Страна-производитель диска: USA
Альбомы за период: 1989 - 2008
Аудиокодек: WavPack (*.wv)
Тип рипа: image+.cue
Битрейт аудио: lossless
Продолжительность: 3CD (указана поальбомно)
Релизер / ресурс: ley-barmaley / lossless-galaxy.ru
Наличие сканов в содержимом раздачи: полное сканирование (JPG, 600dpi)
Atomic Playboys


Жанр: Hard Rock
Страна-производитель диска: USA
Год выхода альбома / издан на CD: 1989 / 1989
Издатель (лейбл): Warner Bros. Records
Номер по каталогу: 9 25920-2
Продолжительность: 50:23

Треклист:

1. Atomic Playboys
2. Power Of Suggestion
3. Action
4. Desperate Heart
5. Soul On Ice
6. Crackdown
7. Pet The Hot Kitty
8. Evening Eye
9. Woman Of 1,000 Years
10. Run Across Desert Sands (Instrumental)
11. Slipping Into Fiction

Steve Stevens: Guitars, Bass, Lead vocal on "Woman Of 1,000 Years"
Perry McCarty: Vocals
Phil Ashley: Keyboards and "Electronic Tonalities"
Thommy Price: Drums (except tracks 4, 8)
Anton Fig: drums (tracks 4, 8)
Kasim Sulton: bass (track 1)
Exact Audio Copy V1.0 beta 3 from 29. August 2011

Отчёт EAC об извлечении, выполненном 10. августа 2012, 23:00

Steve Stevens / Atomic Playboys (Warner Bros., 9 25920-2, USA)

Дисковод: Optiarc DVD RW AD-7173A Adapter: 1 ID: 0

Режим чтения : ДостоверностьИспользование точного потока : ДаОтключение кэша аудио : ДаИспользование указателей C2 : Нет

Коррекция смещения при чтении : 48Способность читать области Lead-in и Lead-out : НетЗаполнение пропущенных сэмплов тишиной : ДаУдаление блоков с тишиной в начале и конце : НетПри вычислениях CRC использовались нулевые сэмплы : ДаИнтерфейс : Встроенный Win32-интерфейс для Win NT/2000

Выходной формат : Внутренние WAV-операцииФормат сэмплов : 44.100 Гц; 16 бит; стерео

TOC извлечённого CD

Трек | Старт | Длительность | Начальный сектор | Конечный сектор --------------------------------------------------------------------- 1 | 0:00.33 | 5:47.32 | 33 | 26089 2 | 5:47.65 | 4:37.63 | 26090 | 46927 3 | 10:25.53 | 4:44.42 | 46928 | 68269 4 | 15:10.20 | 4:33.00 | 68270 | 88744 5 | 19:43.20 | 3:57.15 | 88745 | 106534 6 | 23:40.35 | 5:44.70 | 106535 | 132404 7 | 29:25.30 | 4:03.35 | 132405 | 150664 8 | 33:28.65 | 3:56.68 | 150665 | 168432 9 | 37:25.58 | 4:21.27 | 168433 | 188034 10 | 41:47.10 | 3:52.13 | 188035 | 205447 11 | 45:39.23 | 4:43.35 | 205448 | 226707

Характеристики диапазона извлечения и сообщения об ошибках

Выбранный диапазон

Имя файла G:\ley-barmaley\lossless-galaxy.ru\Steve Stevens - Atomic Playboys (Warner Bros., 9 25920-2, USA).wav

Пиковый уровень 100.0 % Скорость извлечения 6.4 X Качество диапазона 100.0 % CRC теста CAB6BF3F CRC копии CAB6BF3F Копирование... OK

Ошибок не произошло

AccurateRip: сводка

Трек 1 : извлечено точно (доверие 2) [B2074A87] (AR v2)Трек 2 : извлечено точно (доверие 2) [6532B87D] (AR v2)Трек 3 : извлечено точно (доверие 2) [23E37804] (AR v2)Трек 4 : извлечено точно (доверие 2) [39E5637D] (AR v2)Трек 5 : извлечено точно (доверие 3) [8D5B888B] (AR v2)Трек 6 : извлечено точно (доверие 2) [EE5C94BE] (AR v2)Трек 7 : извлечено точно (доверие 2) [ED10C509] (AR v2)Трек 8 : извлечено точно (доверие 2) [88CBFC5B] (AR v2)Трек 9 : извлечено точно (доверие 3) [853D3A1A] (AR v2)Трек 10 : извлечено точно (доверие 3) [98DF03C6] (AR v2)Трек 11 : извлечено точно (доверие 3) [8769AE18] (AR v2)

Все треки извлечены точно

Конец отчёта

---- CUETools DB Plugin V2.1.3

[CTDB TOCID: MwW.7kIUmNylNRWqzbZlrHNSJGQ-] disk not present in database, Submit result: discs with pregaps not supported in this protocol version

==== Контрольная сумма отчёта B40FA5457EE31C345661D4F1C1B72C3CE8971B51571D730A1A467AF0F6CD60CB ====
-----------------------

DON'T MODIFY THIS FILE

-----------------------

PERFORMER: auCDtect Task Manager, ver. 1.5.1RC3 build 1.5.1.4Copyright (c) 2008-2010 y-soft. All rights reservedhttp://y-soft.org

ANALYZER: auCDtect: CD records authenticity detector, version 0.8.2Copyright (c) 2004 Oleg Berngardt. All rights reserved.Copyright (c) 2004 Alexander Djourik. All rights reserved.

FILE: Steve Stevens - Atomic Playboys (Warner Bros., 9 25920-2, USA).wv Size: 338920192 Hash: EFBED684887A7BFDB0727FE8AC32FC10 Accuracy: -m0 Conclusion: CDDA 100% Signature: C697F4D7A8BA342E45C338633419CB0CBC7B3719FILE: Steve Stevens - Atomic Playboys (Warner Bros., 9 25920-2, USA).wav Size: 533217260 Hash: EFBED684887A7BFDB0727FE8AC32FC10 Accuracy: -m0 Conclusion: CDDA 100% Signature: E8984A89129EDEAD2171B202B03297A23F80555A

Flamenco A Go Go


Жанр: Instrumental Rock / Agressive guitar
Страна-производитель диска: USA
Год выхода альбома / издан на CD: 1999 / 1999
Издатель (лейбл): ARK 21 Records
Номер по каталогу: 186 810 025 2
Продолжительность: 55:01

Треклист:

1. Flamenco A Go Go
2. Cinecitta
3. Our Man In Istanbul
4. Letter To A Memory
5. Feminova
6. Velvet Cage
7. Hanina
8. Dementia
9. Twilight In Your Hands
10. Riviera '68

Steve Stevens - All Instruments
Greg Ellis - Percussion
Vinnie Colauita - Drums (4, 10)
Mark Schulman - Drums (8, 9)
Azam Ali - Voice (3, 6, 10)
Faudel - Vocal (7)
Exact Audio Copy V1.0 beta 3 from 29. August 2011

Отчёт EAC об извлечении, выполненном 5. сентября 2012, 18:45

Steve Stevens / Flamenco A Go Go (ARK 21, 186 810 025 2, USA)

Дисковод: ASUS DRW-1814BL Adapter: 0 ID: 0

Режим чтения : ДостоверностьИспользование точного потока : ДаОтключение кэша аудио : ДаИспользование указателей C2 : Нет

Коррекция смещения при чтении : 6Способность читать области Lead-in и Lead-out : НетЗаполнение пропущенных сэмплов тишиной : ДаУдаление блоков с тишиной в начале и конце : НетПри вычислениях CRC использовались нулевые сэмплы : ДаИнтерфейс : Встроенный Win32-интерфейс для Win NT/2000

Выходной формат : Внутренние WAV-операцииФормат сэмплов : 44.100 Гц; 16 бит; стерео

TOC извлечённого CD

Трек | Старт | Длительность | Начальный сектор | Конечный сектор --------------------------------------------------------------------- 1 | 0:00.00 | 5:16.42 | 0 | 23741 2 | 5:16.42 | 4:58.30 | 23742 | 46121 3 | 10:14.72 | 6:13.05 | 46122 | 74101 4 | 16:28.02 | 5:19.48 | 74102 | 98074 5 | 21:47.50 | 3:51.05 | 98075 | 115404 6 | 25:38.55 | 6:04.52 | 115405 | 142756 7 | 31:43.32 | 5:51.08 | 142757 | 169089 8 | 37:34.40 | 6:39.67 | 169090 | 199081 9 | 44:14.32 | 4:20.10 | 199082 | 218591 10 | 48:34.42 | 6:26.55 | 218592 | 247596 11 | 57:33.22 | 9:27.06 | 258997 | 301527

Характеристики диапазона извлечения и сообщения об ошибках

Выбранный диапазон

Имя файла G:\ley-barmaley\lossless-galaxy.ru\Steve Stevens - Flamenco A Go Go (ARK 21, 186 810 025 2, USA).wav

Пиковый уровень 99.8 % Скорость извлечения 4.3 X Качество диапазона 100.0 % CRC теста 48212AD6 CRC копии 48212AD6 Копирование... OK

Ошибок не произошло

AccurateRip: сводка

Трек 1 : извлечено точно (доверие 2) [1D854623] (AR v2)Трек 2 : извлечено точно (доверие 2) [7AD1DB50] (AR v2)Трек 3 : извлечено точно (доверие 2) [BCB5E691] (AR v2)Трек 4 : извлечено точно (доверие 2) [F0461808] (AR v2)Трек 5 : извлечено точно (доверие 2) [19D8F363] (AR v2)Трек 6 : извлечено точно (доверие 2) [C687798E] (AR v2)Трек 7 : извлечено точно (доверие 2) [99243093] (AR v2)Трек 8 : извлечено точно (доверие 2) [F99B93AA] (AR v2)Трек 9 : извлечено точно (доверие 2) [6936EE95] (AR v2)Трек 10 : извлечено точно (доверие 2) [AD83E977] (AR v2)

Все треки извлечены точно

Конец отчёта

---- CUETools DB Plugin V2.1.3

[CTDB TOCID: FH18qJEDfnTrORBGu4FkmSjAkFE-] found, Submit result: FH18qJEDfnTrORBGu4FkmSjAkFE- has been confirmed[2b030aee] (1/1) Accurately ripped

==== Контрольная сумма отчёта 9B40D02F4A12698330274CACBE2F19487BFF03743719D5A6EA4F82D2FF4F4322 ====
-----------------------

DON'T MODIFY THIS FILE

-----------------------

PERFORMER: auCDtect Task Manager, ver. 1.5.1RC3 build 1.5.1.4Copyright (c) 2008-2010 y-soft. All rights reservedhttp://y-soft.org

ANALYZER: auCDtect: CD records authenticity detector, version 0.8.2Copyright (c) 2004 Oleg Berngardt. All rights reserved.Copyright (c) 2004 Alexander Djourik. All rights reserved.

FILE: Steve Stevens - Flamenco A Go Go (ARK 21, 186 810 025 2, USA).wv Size: 349710812 Hash: 52F0404F47D36F536CDAF8D1AE272D7C Accuracy: -m0 Conclusion: CDDA 100% Signature: 32CA5BC881B6C85594A521CF081AB96C10F89C33FILE: Steve Stevens - Flamenco A Go Go (ARK 21, 186 810 025 2, USA).wav Size: 582348188 Hash: 52F0404F47D36F536CDAF8D1AE272D7C Accuracy: -m0 Conclusion: CDDA 100% Signature: 3E894B34E16EB4796522C897987A403DC8889426

Memory Crash


Жанр: Hard Rock / Instrumental Rock / Agressive guitar
Страна-производитель диска: USA
Год выхода альбома / издан на CD: 2008 / 2008
Издатель (лейбл): Magna Carta
Номер по каталогу: MA-9095-2
Продолжительность: 53:49

Треклист:

1. Heavy Horizon
2. Hellcats Take the Highway
3. Memory Crash
4. Water on Ares
5. Day of the Eagle
6. Small Arms Fire
7. Cherry Vanilla
8. Joshua Light Show
9. Prime Mover
10. Josephine

Steve Stevens - Guitars and All Instruments
Brian Tichy - All Drums and Percussion
Dug Pinnick - Vocals and Bass on "Day of the Eagle"
Exact Audio Copy V1.0 beta 3 from 29. August 2011

Отчёт EAC об извлечении, выполненном 5. сентября 2012, 17:30

Steve Stevens / Memory Crash (Magna Carta, MA-9095-2, USA)

Дисковод: ASUS DRW-1814BL Adapter: 0 ID: 0

Режим чтения : ДостоверностьИспользование точного потока : ДаОтключение кэша аудио : ДаИспользование указателей C2 : Нет

Коррекция смещения при чтении : 6Способность читать области Lead-in и Lead-out : НетЗаполнение пропущенных сэмплов тишиной : ДаУдаление блоков с тишиной в начале и конце : НетПри вычислениях CRC использовались нулевые сэмплы : ДаИнтерфейс : Встроенный Win32-интерфейс для Win NT/2000

Выходной формат : Внутренние WAV-операцииФормат сэмплов : 44.100 Гц; 16 бит; стерео

TOC извлечённого CD

Трек | Старт | Длительность | Начальный сектор | Конечный сектор --------------------------------------------------------------------- 1 | 0:00.00 | 2:04.03 | 0 | 9302 2 | 2:04.03 | 5:32.19 | 9303 | 34221 3 | 7:36.22 | 5:06.21 | 34222 | 57192 4 | 12:42.43 | 5:51.37 | 57193 | 83554 5 | 18:34.05 | 5:46.51 | 83555 | 109555 6 | 24:20.56 | 7:30.22 | 109556 | 143327 7 | 31:51.03 | 7:29.67 | 143328 | 177069 8 | 39:20.70 | 1:52.01 | 177070 | 185470 9 | 41:12.71 | 6:13.52 | 185471 | 213497 10 | 47:26.48 | 6:22.20 | 213498 | 242167

Характеристики диапазона извлечения и сообщения об ошибках

Выбранный диапазон

Имя файла G:\ley-barmaley\lossless-galaxy.ru\Steve Stevens - Memory Crash (Magna Carta, MA-9095-2, USA).wav

Пиковый уровень 99.9 % Скорость извлечения 6.4 X Качество диапазона 99.9 % CRC теста 4F2CD572 CRC копии 4F2CD572 Копирование... OK

Ошибок не произошло

AccurateRip: сводка

Трек 1 : извлечено точно (доверие 6) [4420D784] (AR v1)Трек 2 : извлечено точно (доверие 6) [B898DFDE] (AR v1)Трек 3 : извлечено точно (доверие 6) [C6E77FE0] (AR v1)Трек 4 : извлечено точно (доверие 6) [4C3932C3] (AR v1)Трек 5 : извлечено точно (доверие 6) [6C99328D] (AR v1)Трек 6 : извлечено точно (доверие 6) [C9799601] (AR v1)Трек 7 : извлечено точно (доверие 6) [6A772B4F] (AR v1)Трек 8 : извлечено точно (доверие 6) [1DF970DF] (AR v1)Трек 9 : извлечено точно (доверие 6) [2C6FB6C3] (AR v1)Трек 10 : извлечено точно (доверие 6) [738B8E81] (AR v1)

Все треки извлечены точно

Конец отчёта

---- CUETools DB Plugin V2.1.3

[CTDB TOCID: w69BuJar47NXGA6BwZKJpvIZY.8-] found, Submit result: w69BuJar47NXGA6BwZKJpvIZY.8- has been confirmed[f4ab682c] (2/2) Accurately ripped

==== Контрольная сумма отчёта 0AF5081847A04454C8600538C25E9A953DC85B8859EB6FB63C72CD3EE407E90D ====
-----------------------

DON'T MODIFY THIS FILE

-----------------------

PERFORMER: auCDtect Task Manager, ver. 1.5.1RC3 build 1.5.1.4Copyright (c) 2008-2010 y-soft. All rights reservedhttp://y-soft.org

ANALYZER: auCDtect: CD records authenticity detector, version 0.8.2Copyright (c) 2004 Oleg Berngardt. All rights reserved.Copyright (c) 2004 Alexander Djourik. All rights reserved.

FILE: Steve Stevens - Memory Crash (Magna Carta, MA-9095-2, USA).wv Size: 380965490 Hash: 789096EE31671F5241DEAAC12AB26B05 Accuracy: -m0 Conclusion: CDDA 100% Signature: 3A8C6CFD3C2BCA677E42CDD078AA3DA18EF5B7C8FILE: Steve Stevens - Memory Crash (Magna Carta, MA-9095-2, USA).wav Size: 569579180 Hash: 789096EE31671F5241DEAAC12AB26B05 Accuracy: -m0 Conclusion: CDDA 100% Signature: 98421705F9DB8EDE041201453D00F76A9284D03A



Трекер:  [ 27-Сен-2012 19:09 ]

  

Скачать .torrent

Размер .torrent файла 22 KB


Размер: 1.19 GB
Хэш (hash) релиза: 17007f80bc8257eddb83302292e81151192a8be3

Еще никто не оставлял запись к записи скачать торрент Steve Stevens - 3 Albums - 3CD . Будь первым!

!Обратная связь