Скачать через торрент музыку Jimmie Van Zant - Feels Like Freedom - 2012, FLAC бесплатно без регистрации torrent

Если у вас наблюдаются проблемы со скриншотами, переходом по ссылками, скачиванием торрентов - проблемы в блокировщике рекламы AdBlock. #хорошегоДня!


Статистика раздачи
Размер:  430 MB   |    Зарегистрирован:  5 лет 1 месяц   |    .torrent скачан:  14 раз   |   
Раздают:  1  
   
Загрузка...
 
Автор Сообщение

Galfimbul

avatar Galfimbul


Jimmie Van Zant / Feels Like Freedom

Жанр: Southern-Rock/Country-Rock
Страна-производитель диска: Russia
Год издания: 2012
Издатель (лейбл): Пирато & Бандито
Страна: USA
Аудиокодек: FLAC (*.flac)
Тип рипа: image+.cue
Битрейт аудио: lossless
Продолжительность: 40'52''
Источник (релизер): Рип свой, Диск свой
Наличие сканов в содержимом раздачи: да
Треклист:
CD: Jimmie Van Zant - Feels Like Freedom

01. Chasing Shadows [0:03:40.59]
02. Ain't Quite Mary Jane [0:03:21.38]
03. Wildest Branch [0:03:23.57]
04. When You Gonna Learn [0:03:37.35]
05. Feels Like Freedom [0:04:20.22]
06. That'll Take You Back [0:03:47.70]
07. Southern Rock [0:03:08.31]
08. Unfinished Life [0:03:39.45]
09. Runaway Train [0:03:30.48]
10. Come On Man [0:04:24.23]
11. Stronger Stuff [0:03:55.06]
Exact Audio Copy V1.0 beta 3 from 29. August 2011

Отчёт EAC об извлечении, выполненном 25. сентября 2012, 20:28

Jimmie Van Zant / Feels Like Freedom

Дисковод: ASUS DRW-22B3S Adapter: 0 ID: 1

Режим чтения : ДостоверностьИспользование точного потока : ДаОтключение кэша аудио : ДаИспользование указателей C2 : Нет

Коррекция смещения при чтении : 6Способность читать области Lead-in и Lead-out : НетЗаполнение пропущенных сэмплов тишиной : ДаУдаление блоков с тишиной в начале и конце : НетПри вычислениях CRC использовались нулевые сэмплы : ДаИнтерфейс : Встроенный Win32-интерфейс для Win NT/2000

Выходной формат : Пользовательский кодировщикВыбранный битрейт : 896 kBit/sКачество : ВысокийДобавление ID3-тега : ДаУтилита сжатия : C:\Program Files\Exact Audio Copy\FLAC\FLAC.EXEДополнительные параметры : -6 -V -T "ARTIST=%artist%" -T "TITLE=%title%" -T "ALBUM=%albumtitle%" -T "DATE=%year%" -T "TRACKNUMBER=%tracknr%" -T "GENRE=%genre%" -T "COMMENT=%comment%" -T "BAND=%albuminterpret%" -T "ALBUMARTIST=%albuminterpret%" -T "COMPOSER=%composer%" %haslyrics%--tag-from-file=LYRICS="%lyricsfile%"%haslyrics% -T "DISCNUMBER=%cdnumber%" -T "TOTALDISCS=%totalcds%" -T "TOTALTRACKS=%numtracks%" %hascover%--picture="%coverfile%"%hascover% %source% -o %dest%

TOC извлечённого CD

Трек | Старт | Длительность | Начальный сектор | Конечный сектор --------------------------------------------------------------------- 1 | 0:00.00 | 3:40.59 | 0 | 16558 2 | 3:40.59 | 3:21.38 | 16559 | 31671 3 | 7:02.22 | 3:23.57 | 31672 | 46953 4 | 10:26.04 | 3:37.35 | 46954 | 63263 5 | 14:03.39 | 4:20.22 | 63264 | 82785 6 | 18:23.61 | 3:47.70 | 82786 | 99880 7 | 22:11.56 | 3:08.31 | 99881 | 114011 8 | 25:20.12 | 3:39.45 | 114012 | 130481 9 | 28:59.57 | 3:30.48 | 130482 | 146279 10 | 32:30.30 | 4:24.23 | 146280 | 166102 11 | 36:54.53 | 3:55.06 | 166103 | 183733

Характеристики диапазона извлечения и сообщения об ошибках

Выбранный диапазон

Имя файла C:\Documents and Settings\Admin\Рабочий стол\Jimmie Van Zant - Feels Like Freedom - 2012 - 40'52''\Jimmie Van Zant - Feels Like Freedom.wav

Пиковый уровень 97.1 % Скорость извлечения 1.7 X Качество диапазона 100.0 % CRC теста 95DD7CB9 CRC копии 95DD7CB9 Копирование... OK

Ошибок не произошло

Конец отчёта

==== Контрольная сумма отчёта 90B2CCB118D1EC8EEF999733F815874D08EE7772A1287DDDD701C7A4FD92EFA8 ====
-----------------------

DON'T MODIFY THIS FILE

-----------------------

PERFORMER: auCDtect Task Manager, ver. 1.5.1RC4 build 1.5.1.5Copyright (c) 2008-2010 y-soft. All rights reservedhttp://y-soft.org

ANALYZER: auCDtect: CD records authenticity detector, version 0.8.2Copyright (c) 2004 Oleg Berngardt. All rights reserved.Copyright (c) 2004 Alexander Djourik. All rights reserved.

FILE: Jimmie Van Zant - Feels Like Freedom.flac Size: 307376547 Hash: 9966934A5B7E5B578AE1CDED21D4E95E Accuracy: -m0 Conclusion: CDDA 100% Signature: 79EF2EF3CCA552B6962A7F9356A75FBAA0CB40F0
Доп. информация: смесь южного рока и кантри-рока.
Предполагаю (т.к. в английском не силён , поэтому буклет читал с пятое на десятое ), что Джимми из уважаемрго семейства Ронни и Джонни Ван Зантов!
Приятного прослушивания!

Трекер:  [ 27-Сен-2012 19:09 ]

  

Скачать .torrent

Размер .torrent файла 18 KB


Размер: 430 MB
Хэш (hash) релиза: d23ddc3b767806ceb61c20ac063e7ae42b4fe51a

Еще никто не оставлял запись к записи скачать торрент Jimmie Van Zant - Feels Like Freedom - 2012, FLAC . Будь первым!

!Обратная связь