Скачать через торрент музыку Unison - Unison-1976 бесплатно без регистрации torrent

Если у вас наблюдаются проблемы со скриншотами, переходом по ссылками, скачиванием торрентов - проблемы в блокировщике рекламы AdBlock. #хорошегоДня!


Статистика раздачи
Размер:  191 MB   |    Зарегистрирован:  5 лет   |    .torrent скачан:  10 раз   |   
Раздают:  1  
   
Загрузка...
 
Автор Сообщение

Galfimbul

avatar Galfimbul


Unison / Unison-1976 (Reissue 2002)

Жанр: Hard rock
Страна-производитель диска: US
Год издания: 2002
Издатель (лейбл): Synton Archive Productions
Номер по каталогу: 1780821
Страна: US
Аудиокодек: FLAC (*.flac)
Тип рипа: image+.cue
Битрейт аудио: lossless
Продолжительность: 00:34:37
Источник (релизер): Ослосеть
Наличие сканов в содержимом раздачи: да
01.Borderline 3:18
02. Blow Me Away 3:10
03. Flesh And Blood 3:46
04. Cookin' For You 3:17
05. Again 4:35
06. Second Chance 4:48
07. Running Out 4:10
08. So Many Miles 7:34
Exact Audio Copy V1.0 beta 1 from 15. November 2010

EAC extraction logfile from 28. October 2011, 23:28

Unison / Unison

Used drive : PIONEER DVD-RW DVR-215D Adapter: 0 ID: 1

Read mode : SecureUtilize accurate stream : YesDefeat audio cache : YesMake use of C2 pointers : No

Read offset correction : 48Overread into Lead-In and Lead-Out : NoFill up missing offset samples with silence : YesDelete leading and trailing silent blocks : NoNull samples used in CRC calculations : YesUsed interface : Native Win32 interface for Win NT & 2000

Used output format : User Defined EncoderSelected bitrate : 128 kBit/sQuality : HighAdd ID3 tag : NoCommand line compressor : C:\Program Files\Exact Audio Copy\Flac\flac.exeAdditional command line options : -8 -V %s

TOC of the extracted CD

Track | Start | Length | Start sector | End sector --------------------------------------------------------- 1 | 0:00.00 | 3:18.10 | 0 | 14859 2 | 3:18.10 | 3:10.01 | 14860 | 29110 3 | 6:28.11 | 3:45.40 | 29111 | 46025 4 | 10:13.51 | 3:17.29 | 46026 | 60829 5 | 13:31.05 | 4:34.55 | 60830 | 81434 6 | 18:05.60 | 4:48.29 | 81435 | 103063 7 | 22:54.14 | 4:10.02 | 103064 | 121815 8 | 27:04.16 | 7:33.54 | 121816 | 155844

Range status and errors

Selected range

Filename C:\Program Files\Exact Audio Copy\Flac\Unison - Unison.wav

Peak level 99.3 % Extraction speed 1.1 X Range quality 100.0 % Test CRC DFAB69E1 Copy CRC DFAB69E1 Copy OK

No errors occurred

AccurateRip summary

Track 1 cannot be verified as accurate (confidence 1) [EC367136], AccurateRip returned [EE4E60DA]Track 2 cannot be verified as accurate (confidence 1) [FCCEEE03], AccurateRip returned [3D0D9A9B]Track 3 cannot be verified as accurate (confidence 1) [3CF8E7CB], AccurateRip returned [89E7BEE3]Track 4 cannot be verified as accurate (confidence 1) [301F37F0], AccurateRip returned [7234B9F0]Track 5 cannot be verified as accurate (confidence 1) [03365373], AccurateRip returned [B0110FDB]Track 6 cannot be verified as accurate (confidence 1) [47589EB3], AccurateRip returned [5C4BA558]Track 7 cannot be verified as accurate (confidence 1) [A43C8A6E], AccurateRip returned [0B5D8B29]Track 8 cannot be verified as accurate (confidence 1) [5A4159F5], AccurateRip returned [43D36073]

No tracks could be verified as accurateYou may have a different pressing from the one(s) in the database

End of status report
-----------------------

DON'T MODIFY THIS FILE

-----------------------

PERFORMER: auCDtect Task Manager, ver. 1.5.1RC6 build 1.5.1.7Copyright (c) 2008-2010 y-soft. All rights reservedhttp://y-soft.org

ANALYZER: auCDtect: CD records authenticity detector, version 0.8.2Copyright (c) 2004 Oleg Berngardt. All rights reserved.Copyright (c) 2004 Alexander Djourik. All rights reserved.

FILE: Unison - Unison.flac Size: 195870675 Hash: A3FAE7E4A37EFE10FDE179D2B295AC3B Accuracy: -m0 Conclusion: CDDA 100% Signature: E542E6590BC45A940BE8FB80F6DD12DD3C1DC0FC
Bruce Van Iderstine - vocals, congas, harmonica
Mark Tuberdyke - lead guitars
Guy Van Iderstine - guitars
John Vasey - bass
David Richmond - drums, vocals


Трекер:  [ 27-Сен-2012 19:08 ]

  

Скачать .torrent

Размер .torrent файла 15 KB


Размер: 191 MB
Хэш (hash) релиза: 0e69df343dee111d61a3a1e0ce8ee7c9e70cc8ce

Еще никто не оставлял запись к записи скачать торрент Unison - Unison-1976 . Будь первым!

!Обратная связь