Скачать через торрент музыку Pangaea - The Rite Of Passage бесплатно без регистрации torrent

Если у вас наблюдаются проблемы со скриншотами, переходом по ссылками, скачиванием торрентов - проблемы в блокировщике рекламы AdBlock. #хорошегоДня!


Статистика раздачи
Размер:  349 MB   |    Зарегистрирован:  4 года 10 месяцев   |    .torrent скачан:  10 раз   |   
Раздают:  1  
   
Загрузка...
 
Автор Сообщение

Galfimbul

avatar Galfimbul


Pangaea - The Rite Of Passage

Жанр: Neo Progressive
Год выпуска диска: 1996
Страна: USA
Label: Hargadein (Canada)
Catalog Nr.: IF-2404-80062-2
Аудио кодек: FLAC
Тип рипа: image+.cue(test&copy)
Битрейт аудио: lossless
Продолжительность: 55:15
Источник: hyperborea70


Трэклист:

1. Time Syndrome (3:55)
2. The Ship (That Must Come In) (5:59)
Trilogy - The Traveler: (13:18)
3. i) Father (He Shall Add)
4. ii) Hollow Dweller (From The Valley)
5. iii) A Gift (Declaration/Theme And Fugue/Reprise)
6. The Winds (Behind The Door) (4:00)
7. September Park (4:25)
8. Navigator (4:55)
9. Lonely Is A Place (3:55)
10. Beggar's Hand (5:28)
11. Hidden Track-I (0:29)
12. Hidden Track-II (0:31)
13. Hidden Track-III (7:50)

Total Time: 55:15

Музыканты

- Andi Schenck / drums & percussion
- Corey Schenck / keyboards, guitars & backing vocals
- Darrell Masingale / vocals & lead guitar
- Ron Poulsen / bass guitar & backing vocals

Об альбоме: Второй альбом официальной дискографии американской нео-проговой команды является, собственно, первым релизом проекта Pangaea.
Дебютный альбом коллектива (Liquid Placidity) вышел в 1995 под "маркой" Arctica, но входит в дискографию группы по версии ПА.
К сожалению, его, похоже, нереально отыскать, в отличие от третьего альбома группы Welcome to the Theatre... (1998) .
Рип сделан и представлен к раздаче hyperborea70, все благодарности за это адресуются ему.
Exact Audio Copy V1.0 beta 3 from 29. August 2011

Отчёт EAC об извлечении, выполненном 22. сентября 2012, 18:09

Pangaea / The Rite Of Passage

Дисковод: Optiarc DVD RW AD-7203A Adapter: 0 ID: 1

Режим чтения : Достоверность
Использование точного потока : Да
Отключение кэша аудио : Да
Использование указателей C2 : Нет

Коррекция смещения при чтении : 48
Способность читать области Lead-in и Lead-out : Нет
Заполнение пропущенных сэмплов тишиной : Да
Удаление блоков с тишиной в начале и конце : Нет
При вычислениях CRC использовались нулевые сэмплы : Да
Интерфейс : Встроенный Win32-интерфейс для Win NT/2000

Выходной формат : Внутренние WAV-операции
Формат сэмплов : 44.100 Гц; 16 бит; стерео

TOC извлечённого CD

Трек | Старт | Длительность | Начальный сектор | Конечный сектор
---------------------------------------------------------------------
1 | 0:00.00 | 3:59.00 | 0 | 17924
2 | 3:59.00 | 6:03.57 | 17925 | 45206
3 | 10:02.57 | 4:10.23 | 45207 | 63979
4 | 14:13.05 | 3:45.15 | 63980 | 80869
5 | 17:58.20 | 5:28.72 | 80870 | 105541
6 | 23:27.17 | 4:08.15 | 105542 | 124156
7 | 27:35.32 | 4:28.63 | 124157 | 144319
8 | 32:04.20 | 4:53.07 | 144320 | 166301
9 | 36:57.27 | 3:57.38 | 166302 | 184114
10 | 40:54.65 | 5:30.45 | 184115 | 208909
11 | 46:25.35 | 0:31.20 | 208910 | 211254
12 | 46:56.55 | 0:28.65 | 211255 | 213419
13 | 47:25.45 | 7:49.50 | 213420 | 248644

Характеристики диапазона извлечения и сообщения об ошибках

Выбранный диапазон

Имя файла F:\Загрузки\Pangaea-1\Pangaea - The Rite Of Passage.wav

Пиковый уровень 99.8 %
Скорость извлечения 2.2 X
Качество диапазона 99.9 %
CRC теста E7C115FD
CRC копии E7C115FD
Копирование... OK

Ошибок не произошло

AccurateRip: сводка

Трек 1 : извлечено точно (доверие 1) [A2D7BDA9] (AR v2)
Трек 2 : извлечено точно (доверие 1) [0BEC3E9D] (AR v2)
Трек 3 : извлечено точно (доверие 1) [C10C8B7C] (AR v2)
Трек 4 : извлечено точно (доверие 1) [E3135E5B] (AR v2)
Трек 5 : извлечено точно (доверие 1) [B9491B96] (AR v2)
Трек 6 : извлечено точно (доверие 1) [E6E5D9A6] (AR v2)
Трек 7 : извлечено точно (доверие 1) [955FC729] (AR v2)
Трек 8 : извлечено точно (доверие 1) [BECAADAC] (AR v2)
Трек 9 : извлечено точно (доверие 1) [3F0C97A4] (AR v2)
Трек 10 : извлечено точно (доверие 1) [ABD77D16] (AR v2)
Трек 11 отсутствует в базе данных
Трек 12 отсутствует в базе данных
Трек 13 : извлечено точно (доверие 1) [8CDFEFDA] (AR v2)

11 трек(и) скопированы точно
2 трек(и) не содержатся в базе AccurateRip

Некоторые треки не прошли проверку на точность

Конец отчёта
Коврики 300dpi в комплекте.
Progarchives info

Трекер:  [ 27-Сен-2012 19:07 ]

  

Скачать .torrent

Размер .torrent файла 14 KB


Размер: 349 MB
Хэш (hash) релиза: e9736991ead8f30e55c7850de01cfab689df0cdf

Еще никто не оставлял запись к записи скачать торрент Pangaea - The Rite Of Passage . Будь первым!

!Обратная связь