Скачать через торрент музыку Quella Vecchia Locanda - Quella Vecchia Locanda бесплатно без регистрации torrent

Если у вас наблюдаются проблемы со скриншотами, переходом по ссылками, скачиванием торрентов - проблемы в блокировщике рекламы AdBlock. #хорошегоДня!


Статистика раздачи
Размер:  186 MB   |    Зарегистрирован:  5 лет   |    .torrent скачан:  23 раза   |   
Раздают:  1  
   
Загрузка...
 
Автор Сообщение

Galfimbul

avatar Galfimbul


Quella Vecchia Locanda / Quella Vecchia Locanda

Жанр: RPI
Страна-производитель диска: Италия
Год издания: 2008
Издатель (лейбл): Sony BMG
Номер по каталогу: 88697343662
Страна: Италия
Аудиокодек: FLAC (*.flac)
Тип рипа: image+.cue
Битрейт аудио: lossless
Источник (релизер): terr83
Наличие сканов в содержимом раздачи: да
Треклист:
1. Prologo 4:59
2. Un Villaggio,Un'illsione 3:55
3. Realta 4:15
4. Immagini Sfuocate 2:58
5. Il Cieco 4:11
6. Dialogo 3:42
7. Verso La Locanda 5:15
8. Sogno, Risveglio E... 5:14
Exact Audio Copy V0.99 prebeta 4 from 23. January 2008

EAC extraction logfile from 4. March 2012, 18:04

Quella Vecchia Locanda / Quella Vecchia Locanda

Used drive : Optiarc DVD RW AD-7170S Adapter: 1 ID: 0

Read mode : SecureUtilize accurate stream : YesDefeat audio cache : YesMake use of C2 pointers : No

Read offset correction : 48Overread into Lead-In and Lead-Out : NoFill up missing offset samples with silence : YesDelete leading and trailing silent blocks : NoNull samples used in CRC calculations : YesUsed interface : Native Win32 interface for Win NT & 2000

Used output format : User Defined EncoderSelected bitrate : 128 kBit/sQuality : HighAdd ID3 tag : NoCommand line compressor : G:\Program Files\Exact Audio Copy\Flac\flac.exeAdditional command line options : -8 -V %s

TOC of the extracted CD

Track | Start | Length | Start sector | End sector --------------------------------------------------------- 1 | 0:00.00 | 4:59.34 | 0 | 22458 2 | 4:59.34 | 3:54.69 | 22459 | 40077 3 | 8:54.28 | 4:14.64 | 40078 | 59191 4 | 13:09.17 | 2:58.24 | 59192 | 72565 5 | 16:07.41 | 4:11.22 | 72566 | 91412 6 | 20:18.63 | 3:42.00 | 91413 | 108062 7 | 24:00.63 | 5:15.12 | 108063 | 131699 8 | 29:16.00 | 5:14.32 | 131700 | 155281

Range status and errors

Selected range

Filename D:\terr83\Quella Vecchia Locanda - Quella Vecchia Locanda 1972\CDImage.wav

Peak level 96.6 % Range quality 99.9 % Test CRC 8CABEA56 Copy CRC 8CABEA56 Copy OK

No errors occurred

AccurateRip summary

Track 1 accurately ripped (confidence 2) [8413FF4D]Track 2 accurately ripped (confidence 2) [28F850F9]Track 3 accurately ripped (confidence 2) [FD1F01BA]Track 4 accurately ripped (confidence 2) [E4B46284]Track 5 accurately ripped (confidence 2) [53A5FF84]Track 6 accurately ripped (confidence 2) [B2AADAB4]Track 7 accurately ripped (confidence 2) [19F12B9D]Track 8 accurately ripped (confidence 2) [503B1C7B]

All tracks accurately ripped

End of status report
AUDIOCHECKER v2.0 beta (build 457) - by Dester - <a href="mailto:opdester@freemail.hu" class="postLink">opdester@freemail.hu</a>~~~~~~~~~~~~~~~~~~~~~~~~~~~~~~~~~~

Started at: воскресенье, 04. 03. 2012. - 18:05.531 file found

1 -===- D:\terr83\Quella Vecchia Locanda - Quella Vecchia Locanda 1972\CDImage.flac Extracted successfully Conclusion: this track is CDDA with probability 100% Tempfile successfully deleted.

Finished at: воскресенье, 04. 03. 2012. - 18:09.20 (operation time: 0:03.26)


Трекер:  [ 27-Сен-2012 19:06 ]

  

Скачать .torrent

Размер .torrent файла 15 KB


Размер: 186 MB
Хэш (hash) релиза: ac14886547de4573ba3f03504c5fe1436fe6335a

Торренты, похожие на Quella Vecchia Locanda - Quella Vecchia Locanda скачать торрент

Форум Название Автор Размер S L Добавлен
Зарубежный Rock ·· (RPI) Quella Vecchia Locanda - Il Tempo Della Gioia (1974) - 2008, FLAC (image+.cue+scans), lossless Galfimbul 207721219198 MB 0 0 1348761960

19:06

27-Сен-12

Rосk | Mеtаl | Аltеrnаtivе, Рunk, Indереndеnt (losslеss) ·· (Progressive rock/RPI) Quella Vecchia Locanda - Il Tempo Della Gioia (Japan BVCM-37428) - 1974, FLAC (image + .cue + scans), lossless Galfimbul 232502544222 MB 0 0 1297859413

15:30

16-Фев-11

Еще никто не оставлял запись к записи скачать торрент Quella Vecchia Locanda - Quella Vecchia Locanda . Будь первым!

!Обратная связь