Скачать через торрент музыку Quella Vecchia Locanda - Il Tempo Della Gioia бесплатно без регистрации torrent

Если у вас наблюдаются проблемы со скриншотами, переходом по ссылками, скачиванием торрентов - проблемы в блокировщике рекламы AdBlock. #хорошегоДня!


Статистика раздачи
Размер:  198 MB   |    Зарегистрирован:  5 лет   |    .torrent скачан:  10 раз   |   
Раздают:  1  
   
Загрузка...
 
Автор Сообщение

Galfimbul

avatar Galfimbul


Quella Vecchia Locanda / Il Tempo Della Gioia

Жанр: RPI
Страна-производитель диска: Италия
Год издания: 2008
Издатель (лейбл): Sony BMG
Номер по каталогу: 88697343672
Страна: Италия
Аудиокодек: FLAC (*.flac)
Тип рипа: image+.cue
Битрейт аудио: lossless
Источник (релизер): terr83
Наличие сканов в содержимом раздачи: да
Треклист:
1. Villa Doria Pamphili 5:28
2. A Forma Di 4:13
3. Il Tempo Della Gioia 6:18
4. Un Giorno, un Amico 9:43
5. E Accaduto una Notte 8:18
Exact Audio Copy V0.99 prebeta 4 from 23. January 2008

EAC extraction logfile from 4. March 2012, 14:58

Quella Vecchia Locanda / Il Tempo della Gioia

Used drive : Optiarc DVD RW AD-7170S Adapter: 1 ID: 0

Read mode : SecureUtilize accurate stream : YesDefeat audio cache : YesMake use of C2 pointers : No

Read offset correction : 48Overread into Lead-In and Lead-Out : NoFill up missing offset samples with silence : YesDelete leading and trailing silent blocks : NoNull samples used in CRC calculations : YesUsed interface : Native Win32 interface for Win NT & 2000

Used output format : User Defined EncoderSelected bitrate : 128 kBit/sQuality : HighAdd ID3 tag : NoCommand line compressor : G:\Program Files\Exact Audio Copy\Flac\flac.exeAdditional command line options : -8 -V %s

TOC of the extracted CD

Track | Start | Length | Start sector | End sector --------------------------------------------------------- 1 | 0:00.00 | 5:28.10 | 0 | 24609 2 | 5:28.10 | 4:12.67 | 24610 | 43576 3 | 9:41.02 | 6:18.27 | 43577 | 71953 4 | 15:59.29 | 9:42.74 | 71954 | 115677 5 | 25:42.28 | 8:18.35 | 115678 | 153062

Range status and errors

Selected range

Filename D:\terr83\Quella Vecchia Locanda - Il Tempo Della Gioia 1974\CDImage.wav

Peak level 100.0 % Range quality 100.0 % Test CRC 6AD46122 Copy CRC 6AD46122 Copy OK

No errors occurred

AccurateRip summary

Track 1 accurately ripped (confidence 3) [7BB65144]Track 2 accurately ripped (confidence 3) [10C031FF]Track 3 accurately ripped (confidence 3) [5CF3D021]Track 4 accurately ripped (confidence 3) [4421AF07]Track 5 accurately ripped (confidence 3) [EE45BEE3]

All tracks accurately ripped

End of status report
AUDIOCHECKER v2.0 beta (build 457) - by Dester - <a href="mailto:opdester@freemail.hu" class="postLink">opdester@freemail.hu</a>~~~~~~~~~~~~~~~~~~~~~~~~~~~~~~~~~~

Started at: воскресенье, 04. 03. 2012. - 14:59.321 file found

1 -===- D:\terr83\Quella Vecchia Locanda - Il Tempo Della Gioia 1974\CDImage.flac Extracted successfully Conclusion: this track is CDDA with probability 99% Tempfile successfully deleted.

Finished at: воскресенье, 04. 03. 2012. - 15:03.07 (operation time: 0:03.35)


Трекер:  [ 27-Сен-2012 19:06 ]

  

Скачать .torrent

Размер .torrent файла 16 KB


Размер: 198 MB
Хэш (hash) релиза: ef17ba1cd9b81af3d26a1001cc9a4aa91c9665cd

Торренты, похожие на Quella Vecchia Locanda - Il Tempo Della Gioia скачать торрент

Форум Название Автор Размер S L Добавлен
Rосk | Mеtаl | Аltеrnаtivе, Рunk, Indереndеnt (losslеss) ·· (Progressive rock/RPI) Quella Vecchia Locanda - Il Tempo Della Gioia (Japan BVCM-37428) - 1974, FLAC (image + .cue + scans), lossless Galfimbul 232502544222 MB 0 0 1297859413

15:30

16-Фев-11

Еще никто не оставлял запись к записи скачать торрент Quella Vecchia Locanda - Il Tempo Della Gioia . Будь первым!

!Обратная связь