Скачать через торрент музыку Il Volo - Essere o non Essere? бесплатно без регистрации torrent

Если у вас наблюдаются проблемы со скриншотами, переходом по ссылками, скачиванием торрентов - проблемы в блокировщике рекламы AdBlock. #хорошегоДня!


Статистика раздачи
Размер:  207 MB   |    Зарегистрирован:  5 лет 1 месяц   |    .torrent скачан:  25 раз   |   
Раздают:  1  
   
Загрузка...
 
Автор Сообщение

Galfimbul

avatar Galfimbul


Il Volo / Essere o non Essere?

Жанр: RPI
Страна-производитель диска: Италия
Год издания: 2011
Издатель (лейбл): Sony Music
Страна: Италия
Аудиокодек: FLAC (*.flac)
Тип рипа: image+.cue
Битрейт аудио: lossless
Источник (релизер): terr83
Наличие сканов в содержимом раздачи: да
Треклист:
1. Gente In Amore 5:06
2. Medio Oriente 249000 Tutto Compreso 5:49
3. Essere 4:01
4. Alcune Scene 6:18
5. Svegliandomi Con Te Alle 6 Del Mattino 5:21
6. Canti E Suoni 4:26
Exact Audio Copy V0.99 prebeta 4 from 23. January 2008

EAC extraction logfile from 18. February 2012, 13:54

Il Volo / Essere o non Essere

Used drive : Optiarc DVD RW AD-7170S Adapter: 1 ID: 0

Read mode : SecureUtilize accurate stream : YesDefeat audio cache : YesMake use of C2 pointers : No

Read offset correction : 48Overread into Lead-In and Lead-Out : NoFill up missing offset samples with silence : YesDelete leading and trailing silent blocks : NoNull samples used in CRC calculations : YesUsed interface : Native Win32 interface for Win NT & 2000

Used output format : User Defined EncoderSelected bitrate : 128 kBit/sQuality : HighAdd ID3 tag : NoCommand line compressor : G:\Program Files\Exact Audio Copy\Flac\flac.exeAdditional command line options : -8 -V %s

TOC of the extracted CD

Track | Start | Length | Start sector | End sector --------------------------------------------------------- 1 | 0:00.00 | 5:06.02 | 0 | 22951 2 | 5:06.02 | 5:49.14 | 22952 | 49140 3 | 10:55.16 | 4:00.50 | 49141 | 67190 4 | 14:55.66 | 6:18.19 | 67191 | 95559 5 | 21:14.10 | 5:20.38 | 95560 | 119597 6 | 26:34.48 | 4:26.32 | 119598 | 139579

Range status and errors

Selected range

Filename D:\terr83\Il Volo - Essere o non Essere 1975\CDImage.wav

Peak level 96.5 % Range quality 99.9 % Test CRC 2D5CFE5F Copy CRC 2D5CFE5F Copy OK

No errors occurred

AccurateRip summary

Track 1 cannot be verified as accurate (confidence 1) [5D135B9C], AccurateRip returned [F9BE20C2]Track 2 cannot be verified as accurate (confidence 1) [31D00AF8], AccurateRip returned [F51EA7EB]Track 3 cannot be verified as accurate (confidence 1) [CF4A4D8C], AccurateRip returned [1B7EC7C8]Track 4 cannot be verified as accurate (confidence 1) [9846BC48], AccurateRip returned [4525644A]Track 5 cannot be verified as accurate (confidence 1) [9AC6B2F5], AccurateRip returned [FEF8E7A8]Track 6 cannot be verified as accurate (confidence 1) [A78A5815], AccurateRip returned [A0870660]

No tracks could be verified as accurateYou may have a different pressing from the one(s) in the database

End of status report
AUDIOCHECKER v2.0 beta (build 457) - by Dester - <a href="mailto:opdester@freemail.hu" class="postLink">opdester@freemail.hu</a>~~~~~~~~~~~~~~~~~~~~~~~~~~~~~~~~~~

Started at: суббота, 18. 02. 2012. - 13:57.411 file found

1 -===- D:\terr83\Il Volo - Essere o non Essere 1975\CDImage.flac Extracted successfully Conclusion: this track is CDDA with probability 100% Tempfile successfully deleted.

Finished at: суббота, 18. 02. 2012. - 14:01.00 (operation time: 0:03.19)


Трекер:  [ 27-Сен-2012 19:06 ]

  

Скачать .torrent

Размер .torrent файла 17 KB


Размер: 207 MB
Хэш (hash) релиза: afc37b9893696afd6277aee39c343586a05b5b5b

Еще никто не оставлял запись к записи скачать торрент Il Volo - Essere o non Essere? . Будь первым!

!Обратная связь