Скачать через торрент музыку = Little River Band = Beginnings бесплатно без регистрации torrent

Если у вас наблюдаются проблемы со скриншотами, переходом по ссылками, скачиванием торрентов - проблемы в блокировщике рекламы AdBlock. #хорошегоДня!


Статистика раздачи
Размер:  470 MB   |    Зарегистрирован:  4 года 10 месяцев   |    .torrent скачан:  26 раз   |   
Раздают:  1  
   
Загрузка...
 
Автор Сообщение

Galfimbul

avatar Galfimbul


= Little River Band =
= Beginnings Vol.1 & Vol.2 = 1978 (2000) =

Год выпуска диска: 2001
Производитель диска: Australia
Аудио кодек: FLAC
Лейбл: Magic #5251322
Наличие сканов: Да
Источник: Личная коллекция
Тип рипа: image+.cue
Битрейт аудио: lossless
Трэклист:

1. Ford's Bridge
2. Kings of the World
3. Will I
4. Can't Let Go of This Feeling
5. Feel Alone
6. Fool's Gold
7. Arkansas Grass
8. Where in the World
9. A Little Ray of Sunshine
10. All Through the Day
11. Yesterday, Today and Tomorrow
12. Samantha
13. Baby Bear
14. Take It or Leave It
15. All the Days
16. Early Morning
17. Mansfield Hotel
18. Country Pickin'
19. Weaver of Life
20. Who Am I Gonna See
21. Once a Month Country Race Day

Состав:
Glenn Shorrock, Graeham Goble, Beeb Birtles
EAC Log:
Exact Audio Copy V1.0 beta 3 from 29. August 2011

EAC extraction logfile from 24. September 2012, 17:50

Little River Band / Beginnings

Used drive : Optiarc DVD RW AD-7203S Adapter: 3 ID: 0

Read mode : Secure
Utilize accurate stream : Yes
Defeat audio cache : Yes
Make use of C2 pointers : No

Read offset correction : 48
Overread into Lead-In and Lead-Out : No
Fill up missing offset samples with silence : Yes
Delete leading and trailing silent blocks : No
Null samples used in CRC calculations : Yes
Used interface : Native Win32 interface for Win NT & 2000

Used output format : User Defined Encoder
Selected bitrate : 896 kBit/s
Quality : High
Add ID3 tag : Yes
Command line compressor : D:\EAC\Flac\flac.exe
Additional command line options : -V -8 -T "Date=%year%" -T "Genre=%genre%" %source%

TOC of the extracted CD

Track | Start | Length | Start sector | End sector
---------------------------------------------------------
1 | 0:00.00 | 3:40.68 | 0 | 16567
2 | 3:40.68 | 2:31.22 | 16568 | 27914
3 | 6:12.15 | 4:13.48 | 27915 | 46937
4 | 10:25.63 | 3:23.53 | 46938 | 62215
5 | 13:49.41 | 3:31.64 | 62216 | 78104
6 | 17:21.30 | 4:32.48 | 78105 | 98552
7 | 21:54.03 | 3:07.62 | 98553 | 112639
8 | 25:01.65 | 5:02.04 | 112640 | 135293
9 | 30:03.69 | 3:32.65 | 135294 | 151258
10 | 33:36.59 | 2:50.04 | 151259 | 164012
11 | 36:26.63 | 2:54.11 | 164013 | 177073
12 | 39:20.74 | 2:36.38 | 177074 | 188811
13 | 41:57.37 | 3:45.65 | 188812 | 205751
14 | 45:43.27 | 2:29.32 | 205752 | 216958
15 | 48:12.59 | 4:03.27 | 216959 | 235210
16 | 52:16.11 | 3:59.53 | 235211 | 253188
17 | 56:15.64 | 3:41.05 | 253189 | 269768
18 | 59:56.69 | 1:20.04 | 269769 | 275772
19 | 61:16.73 | 2:55.71 | 275773 | 288968
20 | 64:12.69 | 4:17.16 | 288969 | 308259
21 | 68:30.10 | 2:23.14 | 308260 | 318998

Range status and errors

Selected range

Filename E:\Opus\Little River Band - Beginnings.wav

Peak level 87.3 %
Extraction speed 4.3 X
Range quality 100.0 %
Test CRC DD451C18
Copy CRC DD451C18
Copy OK

No errors occurred

AccurateRip summary

Track 1 accurately ripped (confidence 1) [30C7B4EE] (AR v1)
Track 2 accurately ripped (confidence 1) [11AD93D7] (AR v1)
Track 3 accurately ripped (confidence 1) [DDC6DBCA] (AR v1)
Track 4 accurately ripped (confidence 1) [46564EC3] (AR v1)
Track 5 accurately ripped (confidence 1) [553A54EA] (AR v1)
Track 6 accurately ripped (confidence 1) [2593C696] (AR v1)
Track 7 accurately ripped (confidence 1) [DFFD8798] (AR v1)
Track 8 accurately ripped (confidence 1) [28E48863] (AR v1)
Track 9 accurately ripped (confidence 1) [8F51AF30] (AR v1)
Track 10 accurately ripped (confidence 1) [0FDCD24B] (AR v1)
Track 11 accurately ripped (confidence 1) [76C12027] (AR v1)
Track 12 accurately ripped (confidence 1) [367E7EC5] (AR v1)
Track 13 accurately ripped (confidence 1) [DC2D787E] (AR v1)
Track 14 accurately ripped (confidence 1) [7FCF7729] (AR v1)
Track 15 accurately ripped (confidence 1) [95B49237] (AR v1)
Track 16 accurately ripped (confidence 1) [363C1F7F] (AR v1)
Track 17 accurately ripped (confidence 1) [31D1BCD8] (AR v1)
Track 18 accurately ripped (confidence 1) [0736018A] (AR v1)
Track 19 accurately ripped (confidence 1) [291B5B01] (AR v1)
Track 20 accurately ripped (confidence 1) [CF80F954] (AR v1)
Track 21 accurately ripped (confidence 1) [2718D809] (AR v1)

All tracks accurately ripped

End of status report

---- CUETools DB Plugin V2.1.3

[CTDB TOCID: JetBNv197K_qy4zOzNu5ybXolj0-] disk not present in database, Submit result: JetBNv197K_qy4zOzNu5ybXolj0- has been uploaded

==== Log checksum A31542049575C85FE4937D226684FE78CDB88C2E59C79F79A0C08F34CFB83AE4 ====
Доп. информация:
Этот альбом является компиляцией из композиций, записанных до создания группы. На CD выходил сразу в сдвоенном варианте.


Приятного прослушивания! Зарелизено на http://рутраскер


Трекер:  [ 27-Сен-2012 19:06 ]

  

Скачать .torrent

Размер .torrent файла 19 KB


Размер: 470 MB
Хэш (hash) релиза: 5feaf69c1183c1159d068d202260bf00468ec8d8

Еще никто не оставлял запись к записи скачать торрент = Little River Band = Beginnings . Будь первым!

!Обратная связь