Скачать через торрент музыку Budgie 1997-The Best of Budgie бесплатно без регистрации torrent

Если у вас наблюдаются проблемы со скриншотами, переходом по ссылками, скачиванием торрентов - проблемы в блокировщике рекламы AdBlock. #хорошегоДня!


Статистика раздачи
Размер:  492 MB   |    Зарегистрирован:  4 года 10 месяцев   |    .torrent скачан:  24 раза   |   
Раздают:  1  
   
Загрузка...
 
Автор Сообщение

Galfimbul

avatar Galfimbul


1997-The Best of Budgie
[HMNCD 017, Germany]

Жанр: Hard Rock
Страна исполнителя: Wales (UK)
Страна-производитель диска: Germany
Год выхода альбома / издания диска: 1997
Издатель (лейбл): MCA Half Moon
Номер по каталогу: HMNCD 017
Аудио кодек: FLAC (*.flac)
Тип рипа: image+.cue
Битрейт аудио: lossless
Продолжительность: 1:09:59
Источник: taurus66 (NetLab)
Наличие сканов в содержимом раздачи:
01. Breadfan (6:06)
02. In the Grip of a Tyrefitter's Hand (6:24)
03. I Ain't No Mountain (3:33)
04. In for the Kill (6:26)
05. I Can't See My Feelings (5:52)
06. Napoleon Bona, Pt. 1-2 (7:16)
07. Parents (10:12)
08. Hammer and Tongs (6:53)
09. Breaking All the House Rules (7:24)
10. Zoom Club (9:53)
Exact Audio Copy V1.0 beta 3 from 29. August 2011

EAC extraction logfile from 19. September 2012, 23:11

Budgie / The Best of Budgie [Spectrum Half Moon HMNCD 017]

Used drive : Optiarc DVD RW AD-7200S Adapter: 5 ID: 1

Read mode : SecureUtilize accurate stream : YesDefeat audio cache : YesMake use of C2 pointers : No

Read offset correction : 48Overread into Lead-In and Lead-Out : NoFill up missing offset samples with silence : YesDelete leading and trailing silent blocks : NoNull samples used in CRC calculations : YesUsed interface : Installed external ASPI interface

Used output format : User Defined EncoderSelected bitrate : 1024 kBit/sQuality : HighAdd ID3 tag : NoCommand line compressor : D:\Program Files (x86)\Exact Audio Copy\wavpack.exeAdditional command line options : -hlmx2 %source% %dest%

TOC of the extracted CD

Track | Start | Length | Start sector | End sector --------------------------------------------------------- 1 | 0:00.00 | 6:06.32 | 0 | 27481 2 | 6:06.32 | 6:23.45 | 27482 | 56251 3 | 12:30.02 | 3:33.35 | 56252 | 72261 4 | 16:03.37 | 6:25.73 | 72262 | 101209 5 | 22:29.35 | 5:51.52 | 101210 | 127586 6 | 28:21.12 | 7:15.60 | 127587 | 160271 7 | 35:36.72 | 10:12.03 | 160272 | 206174 8 | 45:49.00 | 6:53.07 | 206175 | 237156 9 | 52:42.07 | 7:24.25 | 237157 | 270481 10 | 60:06.32 | 9:52.43 | 270482 | 314924

Range status and errors

Selected range

Filename D:\eac\Budgie\Budgie - The Best of Budgie [Spectrum Half Moon HMNCD 017].wav

Peak level 100.0 % Extraction speed 4.4 X Range quality 100.0 % Test CRC DD87AC1E Copy CRC DD87AC1E Copy OK

No errors occurred

AccurateRip summary

Track 1 accurately ripped (confidence 4) [78DC5E45] (AR v1)Track 2 accurately ripped (confidence 4) [74072137] (AR v1)Track 3 accurately ripped (confidence 4) [F066F63E] (AR v1)Track 4 accurately ripped (confidence 4) [318E2447] (AR v1)Track 5 accurately ripped (confidence 4) [D917EA3C] (AR v1)Track 6 accurately ripped (confidence 4) [6F48A020] (AR v1)Track 7 accurately ripped (confidence 4) [7CF3047E] (AR v1)Track 8 accurately ripped (confidence 4) [E17E246D] (AR v1)Track 9 accurately ripped (confidence 4) [CF95CC0D] (AR v1)Track 10 accurately ripped (confidence 4) [759B9AEB] (AR v1)

All tracks accurately ripped

End of status report

---- CUETools DB Plugin V2.1.3

[CTDB TOCID: WJVxgyUkrLPIun4r0CYGqq24Z8s-] found, Submit result: WJVxgyUkrLPIun4r0CYGqq24Z8s- has been confirmed[79f5503d] (4/4) Accurately ripped

==== Log checksum 228E758D3877D122C471EC6B277B700D620DDC6B766318F4BB73C78DFFB4F799 ====
REM GENRE "Hard Rock"REM DATE 1997REM DISCID 8610670AREM COMMENT "ExactAudioCopy v1.0b3"CATALOG 0008811169824PERFORMER "Budgie"TITLE "The Best of Budgie [MCA Half Moon HMNCD 017]"FILE "Budgie - 1997 - The Best of Budgie.flac" WAVE TRACK 01 AUDIO TITLE "Breadfan" PERFORMER "Budgie" INDEX 01 00:00:00 TRACK 02 AUDIO TITLE "In the Grip of a Tyrefitter's Hand" PERFORMER "Budgie" INDEX 00 06:04:45 INDEX 01 06:06:32 TRACK 03 AUDIO TITLE "I Ain't No Mountain" PERFORMER "Budgie" INDEX 00 12:28:15 INDEX 01 12:30:02 TRACK 04 AUDIO TITLE "In for the Kill" PERFORMER "Budgie" INDEX 00 16:01:50 INDEX 01 16:03:37 TRACK 05 AUDIO TITLE "I Can't See My Feelings" PERFORMER "Budgie" INDEX 00 22:27:47 INDEX 01 22:29:35 TRACK 06 AUDIO TITLE "Napoleon Bona, Pt. 1-2" PERFORMER "Budgie" INDEX 00 28:19:25 INDEX 01 28:21:12 TRACK 07 AUDIO TITLE "Parents" PERFORMER "Budgie" INDEX 00 35:35:10 INDEX 01 35:36:72 TRACK 08 AUDIO TITLE "Hammer and Tongs" PERFORMER "Budgie" INDEX 00 45:47:12 INDEX 01 45:49:00 TRACK 09 AUDIO TITLE "Breaking All the House Rules" PERFORMER "Budgie" INDEX 00 52:40:20 INDEX 01 52:42:07 TRACK 10 AUDIO TITLE "Zoom Club" PERFORMER "Budgie" INDEX 00 60:04:45 INDEX 01 60:06:32
[CUETools log; Date: 24.09.2012 12:30:01; Version: 2.1.4][CTDB TOCID: WJVxgyUkrLPIun4r0CYGqq24Z8s-] found.Track | CTDB Status 1 | (5/5) Accurately ripped 2 | (5/5) Accurately ripped 3 | (5/5) Accurately ripped 4 | (5/5) Accurately ripped 5 | (5/5) Accurately ripped 6 | (5/5) Accurately ripped 7 | (5/5) Accurately ripped 8 | (5/5) Accurately ripped 9 | (5/5) Accurately ripped 10 | (5/5) Accurately ripped[AccurateRip ID: 001803ac-00c436ad-8610670a] found.Track [ CRC | V2 ] Status 01 [78dc5e45|6979ab87] (04+00/17) Accurately ripped 02 [74072137|4e703eaf] (04+00/17) Accurately ripped 03 [f066f63e|af2a6f95] (04+00/17) Accurately ripped 04 [318e2447|6022be6b] (04+00/17) Accurately ripped 05 [d917ea3c|6fca450d] (04+00/17) Accurately ripped 06 [6f48a020|98538066] (04+00/17) Accurately ripped 07 [7cf3047e|ef87d3a5] (04+00/15) Accurately ripped 08 [e17e246d|c55411ce] (04+00/17) Accurately ripped 09 [cf95cc0d|a17c6c08] (04+00/17) Accurately ripped 10 [759b9aeb|c97c7bdc] (04+00/16) Accurately rippedOffsetted by -578: 01 [12d6ec63] (04/17) Accurately ripped 02 [8a841af7] (04/17) Accurately ripped 03 [a1c77812] (04/17) Accurately ripped 04 [a6c624ed] (04/17) Accurately ripped 05 [137fedce] (04/17) Accurately ripped 06 [713c5982] (04/17) Accurately ripped 07 [04adde04] (04/15) Accurately ripped 08 [e4cf13c9] (04/17) Accurately ripped 09 [6acd432d] (04/17) Accurately ripped 10 [e8df49b1] (04/16) Accurately rippedOffsetted by 86: 01 [7735c27b] (05/17) Accurately ripped 02 [c77dd5f7] (05/17) Accurately ripped 03 [8b9a2722] (05/17) Accurately ripped 04 [18245ea5] (05/17) Accurately ripped 05 [9de96f76] (05/17) Accurately ripped 06 [32c2096a] (05/17) Accurately ripped 07 [0adba53c] (05/15) Accurately ripped 08 [e3a82279] (05/17) Accurately ripped 09 [8d15f5ad] (05/17) Accurately ripped 10 [c33d61e9] (04/16) Accurately ripped

Track Peak [ CRC32 ] [W/O NULL] [ LOG ] -- 100,0 [DD87AC1E] [6E88D230] CRC32 01 99,3 [5411F39E] [C0691623] 02 99,9 [C122F238] [896A7067] 03 100,0 [F63AC1ED] [78165DF8] 04 100,0 [AC7FC394] [D481A89A] 05 100,0 [22FFBD13] [F3BD3D8F] 06 100,0 [7F600649] [14C75A8A] 07 100,0 [6EBA4A62] [01F11963] 08 96,7 [9EF0E1DB] [5D557386] 09 100,0 [8DA5B9D2] [91A445A5] 10 99,3 [6652BBF4] [5F93F93E]
foobar2000 1.1.1 / Dynamic Range Meter 1.1.1log date: 2012-09-24 12:22:50

--------------------------------------------------------------------------------Analyzed: Budgie / The Best of Budgie [MCA Half Moon HMNCD 017]--------------------------------------------------------------------------------

DR Peak RMS Duration Track--------------------------------------------------------------------------------DR11 -0.05 dB -13.24 dB 6:06 01-BreadfanDR10 0.00 dB -11.44 dB 6:24 02-In the Grip of a Tyrefitter's HandDR11 0.00 dB -13.43 dB 3:33 03-I Ain't No MountainDR9 0.00 dB -10.48 dB 6:26 04-In for the KillDR11 0.00 dB -13.26 dB 5:52 05-I Can't See My FeelingsDR11 0.00 dB -13.46 dB 7:16 06-Napoleon Bona, Pt. 1-2DR9 0.00 dB -11.17 dB 10:12 07-ParentsDR11 -0.29 dB -14.34 dB 6:53 08-Hammer and TongsDR9 0.00 dB -10.68 dB 7:24 09-Breaking All the House RulesDR10 -0.06 dB -11.83 dB 9:53 10-Zoom Club--------------------------------------------------------------------------------

Number of tracks: 10Official DR value: DR10

Samplerate: 44100 HzChannels: 2Bits per sample: 16Bitrate: 935 kbpsCodec: FLAC

Credits:
• Burke Shelley — bass guitar and vocals (all tracks)
• Tony Bourge — guitar (all tracks)
• Ray Phillips — drums (tracks 1, 2 & 7)
• Pete Boot — drums (tracks 4, 8 & 10)
• Steve Williams — drums (tracks 3, 5, 6 & 9)
Огромное спасибо автору рипа!


Трекер:  [ 27-Сен-2012 19:06 ]

  

Скачать .torrent

Размер .torrent файла 20 KB


Размер: 492 MB
Хэш (hash) релиза: 866611a820b6c9edc91b7051c82f95efb2a92cb5

Еще никто не оставлял запись к записи скачать торрент Budgie 1997-The Best of Budgie . Будь первым!

!Обратная связь