Скачать через торрент музыку Tattooed Love Boys - No Time for Nursery Rhymes - 1991, APE бесплатно без регистрации torrent

Если у вас наблюдаются проблемы со скриншотами, переходом по ссылками, скачиванием торрентов - проблемы в блокировщике рекламы AdBlock. #хорошегоДня!


Статистика раздачи
Размер:  277 MB   |    Зарегистрирован:  4 года 10 месяцев   |    .torrent скачан:  12 раз   |   
Раздают:  1  
   
Загрузка...
 
Автор Сообщение

Galfimbul

avatar Galfimbul


Tattooed Love Boys / No Time for Nursery Rhymes

Жанр: sleaze/glam
Страна-производитель диска: France
Год издания: 1991
Издатель (лейбл): MFN
Номер по каталогу: CDMFN 120
Страна: UK
Аудиокодек: APE (*.ape)
Тип рипа: image+.cue
Битрейт аудио: lossless
Источник (релизер): свой рипъ
Наличие сканов в содержимом раздачи: нет
Треклист:
01. No Time for Nursery Rhymes
02. Real Long Way
03. Mystery Train
04. Fat Cat
05. Breakdown Dead Ahead
06. Doin' Damage
07. White Lightning
08. Snakebite
09. Shake Dog Shake
10. Blood on Roses
Exact Audio Copy V0.99 prebeta 4 from 23. January 2008

EAC extraction logfile from 24. September 2012, 18:44

Tattooed Love Boys / No Time For Nursery Rhymes

Used drive : PIONEER DVD-RW DVR-212 Adapter: 5 ID: 0

Read mode : SecureUtilize accurate stream : YesDefeat audio cache : YesMake use of C2 pointers : No

Read offset correction : 48Overread into Lead-In and Lead-Out : NoFill up missing offset samples with silence : YesDelete leading and trailing silent blocks : NoNull samples used in CRC calculations : YesUsed interface : Native Win32 interface for Win NT & 2000

Used output format : Internal WAV RoutinesSample format : 44.100 Hz; 16 Bit; Stereo

TOC of the extracted CD

Track | Start | Length | Start sector | End sector --------------------------------------------------------- 1 | 0:00.32 | 5:00.43 | 32 | 22574 2 | 5:01.00 | 4:56.00 | 22575 | 44774 3 | 9:57.00 | 5:08.47 | 44775 | 67921 4 | 15:05.47 | 5:29.48 | 67922 | 92644 5 | 20:35.20 | 2:45.02 | 92645 | 105021 6 | 23:20.22 | 3:23.10 | 105022 | 120256 7 | 26:43.32 | 4:34.15 | 120257 | 140821 8 | 31:17.47 | 3:55.70 | 140822 | 158516 9 | 35:13.42 | 3:46.00 | 158517 | 175466 10 | 38:59.42 | 6:33.40 | 175467 | 204981

Range status and errors

Selected range

Filename D:\temp\Tattooed Love Boys - No Time For Nursery Rhymes.wav

Peak level 90.8 % Range quality 100.0 % Copy CRC B9ECB42D Copy OK

No errors occurred

AccurateRip summary

Track 1 accurately ripped (confidence 1) [1F47E762]Track 2 accurately ripped (confidence 1) [FA4E31C4]Track 3 accurately ripped (confidence 1) [B27722BF]Track 4 accurately ripped (confidence 1) [43D5294C]Track 5 accurately ripped (confidence 1) [0FF6E5D0]Track 6 accurately ripped (confidence 1) [F99DCD62]Track 7 accurately ripped (confidence 1) [3C483473]Track 8 accurately ripped (confidence 1) [CC83F09F]Track 9 accurately ripped (confidence 1) [C8AFD035]Track 10 accurately ripped (confidence 1) [5527435C]

All tracks accurately ripped

End of status report


Трекер:  [ 27-Сен-2012 19:06 ]

  

Скачать .torrent

Размер .torrent файла 22 KB


Размер: 277 MB
Хэш (hash) релиза: 482da3e682ff7eb48882b98c0be01affd02f15eb

Еще никто не оставлял запись к записи скачать торрент Tattooed Love Boys - No Time for Nursery Rhymes - 1991, APE . Будь первым!

!Обратная связь