Скачать через торрент музыку Various - Born to Rock бесплатно без регистрации torrent

Если у вас наблюдаются проблемы со скриншотами, переходом по ссылками, скачиванием торрентов - проблемы в блокировщике рекламы AdBlock. #хорошегоДня!


Статистика раздачи
Размер:  419 MB   |    Зарегистрирован:  5 лет 1 месяц   |    .torrent скачан:  14 раз   |   
Раздают:  1  
   
Загрузка...
 
Автор Сообщение

Galfimbul

avatar Galfimbul


Various / Born to Rock (Приложение #054 к журналу Stereo & Video S&V#10'2002)
Жанр: Rock
Страна-производитель диска: Russia
Год издания: 2005
Издатель (лейбл): Universal
Номер по каталогу: SVD054
Страна: USA
Аудиокодек: FLAC (*.flac)
Тип рипа: image+.cue
Битрейт аудио: lossless
Продолжительность: 01:01:06
Источник (релизер): мой рип
Сканы: да

Треклист:
1. Thin Lizzy – Whiskey In The Jar
2. Bachman Turner Overdrive – You Ain't Seen Nothin' Yet
3. Allman Brothers Band, The – Ramblin' Man
4. Rod Stewart – You Wear It Well
5. Frijid Pink – House Of The Rising Sun
6. Lynyrd Skynyrd – Sweet Home Alabama
7. Joe Walsh – Rocky Mountain Way
8. Matthews' Southern Comfort – Woodstock
9. Nils Lofgren – Shine Silently
10. Rainbow – Since You've Been Gone
11. Peter Frampton – Show Me The Way
12. Stealers Wheel – Stuck In The Middle With You
13. Status Quo – Down Down
14. Steppenwolf – Born To Be Wild
15. J.J. Cale – After Midnight
Exact Audio Copy V0.99 prebeta 5 from 4. May 2009

Отчёт EAC об извлечении, выполненном 19. сентября 2012, 12:17

Various / Born to Rock (SV'10'02)

Дисковод: MATSHITABD-MLT UJ240AS Adapter: 0 ID: 0

Режим чтения : ДостоверностьИспользование точного потока : ДаОтключение кэша аудио : ДаИспользование указателей C2 : Нет

Коррекция смещения при чтении : 103Способность читать области Lead-in и Lead-out : НетЗаполнение пропущенных сэмплов тишиной : ДаУдаление блоков с тишиной в начале и конце : НетПри вычислениях CRC использовались нулевые сэмплы : ДаИнтерфейс : Встроенный Win32-интерфейс для Win NT/2000

Выходной формат : Внутренние WAV-операцииФормат сэмплов : 44.100 Гц; 16 бит; стерео

TOC извлечённого CD

Трек | Старт | Длительность | Начальный сектор | Конечный сектор --------------------------------------------------------------------- 1 | 0:00.00 | 5:43.39 | 0 | 25763 2 | 5:43.39 | 3:33.38 | 25764 | 41776 3 | 9:17.02 | 4:42.39 | 41777 | 62965 4 | 13:59.41 | 4:21.49 | 62966 | 82589 5 | 18:21.15 | 4:39.67 | 82590 | 103581 6 | 23:01.07 | 4:44.21 | 103582 | 124902 7 | 27:45.28 | 5:12.73 | 124903 | 148375 8 | 32:58.26 | 4:28.47 | 148376 | 168522 9 | 37:26.73 | 3:37.53 | 168523 | 184850 10 | 41:04.51 | 3:18.65 | 184851 | 199765 11 | 44:23.41 | 3:34.72 | 199766 | 215887 12 | 47:58.38 | 3:23.73 | 215888 | 231185 13 | 51:22.36 | 3:49.35 | 231186 | 248395 14 | 55:11.71 | 3:28.20 | 248396 | 264015 15 | 58:40.16 | 2:26.51 | 264016 | 275016

Характеристики диапазона извлечения и сообщения об ошибках

Выбранный диапазон

Имя файла C:\Users\1\Music\S&V\Born To Rock (S&V054)\Various - Born to Rock (SV'10'02).wav

Пиковый уровень 97.7 % Качество диапазона 99.9 % CRC теста B897AB65 CRC копии B897AB65 Копирование... OK

Ошибок не произошло

AccurateRip: сводка

Трек 1 точное извлечение (доверие 4) [A9F54CBE]Трек 2 точное извлечение (доверие 4) [8A2D2A5D]Трек 3 точное извлечение (доверие 4) [2BAC9B1F]Трек 4 точное извлечение (доверие 4) [39B1110E]Трек 5 точное извлечение (доверие 4) [FE9F099B]Трек 6 точное извлечение (доверие 4) [07624AA2]Трек 7 точное извлечение (доверие 4) [656BA465]Трек 8 точное извлечение (доверие 4) [A960C5AF]Трек 9 точное извлечение (доверие 4) [68522491]Трек 10 точное извлечение (доверие 4) [EB2F4E0B]Трек 11 точное извлечение (доверие 4) [C352C74F]Трек 12 точное извлечение (доверие 4) [24A879D0]Трек 13 точное извлечение (доверие 4) [E646FAFD]Трек 14 точное извлечение (доверие 4) [1CA686F8]Трек 15 точное извлечение (доверие 4) [E4952B1F]

Все треки извлечены точно

Конец отчёта


Трекер:  [ 27-Сен-2012 19:06 ]

  

Скачать .torrent

Размер .torrent файла 17 KB


Размер: 419 MB
Хэш (hash) релиза: 66df6573580ee901c44faa7bd17e5a50aafff249

Еще никто не оставлял запись к записи скачать торрент Various - Born to Rock . Будь первым!

!Обратная связь