Скачать через торрент музыку Blodwyn Pig бесплатно без регистрации torrent

Если у вас наблюдаются проблемы со скриншотами, переходом по ссылками, скачиванием торрентов - проблемы в блокировщике рекламы AdBlock. #хорошегоДня!


Статистика раздачи
Размер:  462 MB   |    Зарегистрирован:  4 года 10 месяцев   |    .torrent скачан:  9 раз   |   
Раздают:  1  
   
Загрузка...
 
Автор Сообщение

Galfimbul

avatar Galfimbul


Blodwyn Pig
1969-Ahead Rings Out
[2006, EMI 0946 357685 2 7, bonus tracks]

Жанр: Classic Rock / Blues Rock
Страна исполнителя: United Kingdom
Страна-производитель диска: EU
IFPI: L573 (Germany)
Год выхода альбома / издания диска: 1969 / 2006
Издатель (лейбл): EMI Records Ltd.
Номер по каталогу: EMI 0946 357685 2 7
Аудио кодек: FLAC (*.flac)
Тип рипа: image+.cue
Битрейт аудио: lossless
Продолжительность: 1:04:44
Источник: taurus66 (NetLab)
Наличие сканов в содержимом раздачи:
01. It's Only Love (3:24)
02. Dear Jill (5:19)
03. Sing Me a Song That I Know (3:09)
04. The Modern Alchemist (5:39)
05. Up and Coming (5:31)
06. Leave It with Me (3:52)
07. The Change Song (3:45)
08. See My Way (5:07)
09. Ain't Ya Comin' Home, Babe? (6:05)

Bonus Tracks:
10. Sweet Caroline (2:51)
11. Walk on Water (3:43)
12. Summer Day (3:44)
13. Same Old Story (2:37)
14. Slow Down (4:20)
15. Meanie Mornay (4:46)
16. Backwash (0:53)
Exact Audio Copy V1.0 beta 3 from 29. August 2011

EAC extraction logfile from 21. September 2012, 13:57

Blodwyn Pig / Ahead Rings Out [EMI 0946 357685 2 7]

Used drive : Optiarc DVD RW AD-7200S Adapter: 5 ID: 1

Read mode : SecureUtilize accurate stream : YesDefeat audio cache : YesMake use of C2 pointers : No

Read offset correction : 48Overread into Lead-In and Lead-Out : NoFill up missing offset samples with silence : YesDelete leading and trailing silent blocks : NoNull samples used in CRC calculations : YesUsed interface : Installed external ASPI interface

Used output format : User Defined EncoderSelected bitrate : 1024 kBit/sQuality : HighAdd ID3 tag : NoCommand line compressor : D:\Program Files (x86)\Exact Audio Copy\wavpack.exeAdditional command line options : -hlmx2 %source% %dest%

TOC of the extracted CD

Track | Start | Length | Start sector | End sector --------------------------------------------------------- 1 | 0:00.00 | 3:23.43 | 0 | 15267 2 | 3:23.43 | 5:19.24 | 15268 | 39216 3 | 8:42.67 | 3:08.40 | 39217 | 53356 4 | 11:51.32 | 5:38.70 | 53357 | 78776 5 | 17:30.27 | 5:31.23 | 78777 | 103624 6 | 23:01.50 | 3:52.15 | 103625 | 121039 7 | 26:53.65 | 3:45.12 | 121040 | 137926 8 | 30:39.02 | 5:06.52 | 137927 | 160928 9 | 35:45.54 | 6:04.58 | 160929 | 188286 10 | 41:50.37 | 2:51.04 | 188287 | 201115 11 | 44:41.41 | 3:42.38 | 201116 | 217803 12 | 48:24.04 | 3:44.19 | 217804 | 234622 13 | 52:08.23 | 2:36.56 | 234623 | 246378 14 | 54:45.04 | 4:20.05 | 246379 | 265883 15 | 59:05.09 | 4:45.55 | 265884 | 287313 16 | 63:50.64 | 0:53.18 | 287314 | 291306

Range status and errors

Selected range

Filename D:\eac\Blodwyn Pig\Blodwyn Pig - Ahead Rings Out [EMI 0946 357685 2 7].wav

Peak level 99.2 % Extraction speed 4.2 X Range quality 99.9 % Test CRC DDFC0172 Copy CRC DDFC0172 Copy OK

No errors occurred

AccurateRip summary

Track 1 accurately ripped (confidence 7) [06E8000F] (AR v1)Track 2 accurately ripped (confidence 7) [F775F72C] (AR v1)Track 3 accurately ripped (confidence 6) [027E3DF5] (AR v1)Track 4 accurately ripped (confidence 7) [0CDFB87D] (AR v1)Track 5 accurately ripped (confidence 7) [78F9B275] (AR v1)Track 6 accurately ripped (confidence 6) [114B129A] (AR v1)Track 7 accurately ripped (confidence 7) [24262DCE] (AR v1)Track 8 accurately ripped (confidence 7) [3F296A04] (AR v1)Track 9 accurately ripped (confidence 6) [037FA57B] (AR v1)Track 10 accurately ripped (confidence 5) [B7580816] (AR v1)Track 11 accurately ripped (confidence 6) [1D6EB10F] (AR v1)Track 12 accurately ripped (confidence 5) [073BA32E] (AR v1)Track 13 accurately ripped (confidence 5) [6AB4FFF5] (AR v1)Track 14 accurately ripped (confidence 5) [CB9647B6] (AR v1)Track 15 accurately ripped (confidence 6) [A547E00D] (AR v1)Track 16 accurately ripped (confidence 5) [7562A240] (AR v1)

All tracks accurately ripped

End of status report

---- CUETools DB Plugin V2.1.3

[CTDB TOCID: qaJi8qPNL4xkoOY6yBnKbqkKNy8-] found, Submit result: qaJi8qPNL4xkoOY6yBnKbqkKNy8- has been confirmed[c7bdcab6] (23/24) Accurately ripped[795ec971] (01/24) No match

==== Log checksum 5C468DE3FFE948FF708AF9FBFE40A7152C5D6798F0BCDF461E33F88574EC69B8 ====
REM GENRE "Blues Rock"REM DATE 1969REM DISCID CB0F2C10REM COMMENT "ExactAudioCopy v1.0b3"CATALOG 0094635768527PERFORMER "Blodwyn Pig"TITLE "Ahead Rings Out [EMI 0946 357685 2 7]"FILE "Blodwyn Pig - Ahead Rings Out.flac" WAVE TRACK 01 AUDIO TITLE "It's Only Love" PERFORMER "Blodwyn Pig" ISRC GBAYK0600045 INDEX 01 00:00:00 TRACK 02 AUDIO TITLE "Dear Jill" PERFORMER "Blodwyn Pig" ISRC GBAYK0600046 INDEX 00 03:22:51 INDEX 01 03:23:43 TRACK 03 AUDIO TITLE "Sing Me a Song That I Know" PERFORMER "Blodwyn Pig" ISRC GBAYK0600047 INDEX 00 08:42:09 INDEX 01 08:42:67 TRACK 04 AUDIO TITLE "The Modern Alchemist" PERFORMER "Blodwyn Pig" ISRC GBAYK0600048 INDEX 00 11:50:60 INDEX 01 11:51:32 TRACK 05 AUDIO TITLE "Up and Coming" PERFORMER "Blodwyn Pig" ISRC GBAYK0600049 INDEX 00 17:28:34 INDEX 01 17:30:27 TRACK 06 AUDIO TITLE "Leave It with Me" PERFORMER "Blodwyn Pig" ISRC GBAYK0600050 INDEX 00 23:00:34 INDEX 01 23:01:50 TRACK 07 AUDIO TITLE "The Change Song" PERFORMER "Blodwyn Pig" ISRC GBAYK0600051 INDEX 00 26:53:46 INDEX 01 26:53:65 TRACK 08 AUDIO TITLE "See My Way" PERFORMER "Blodwyn Pig" ISRC GBAYK0600052 INDEX 00 30:36:16 INDEX 01 30:39:02 TRACK 09 AUDIO TITLE "Ain't Ya Comin' Home, Babe?" PERFORMER "Blodwyn Pig" ISRC GBAYK0600053 INDEX 00 35:44:03 INDEX 01 35:45:54 TRACK 10 AUDIO TITLE "Sweet Caroline" PERFORMER "Blodwyn Pig" ISRC GBAYK0600054 INDEX 00 41:48:39 INDEX 01 41:50:37 TRACK 11 AUDIO TITLE "Walk on Water" PERFORMER "Blodwyn Pig" ISRC GBAYK0600055 INDEX 00 44:40:69 INDEX 01 44:41:41 TRACK 12 AUDIO TITLE "Summer Day" PERFORMER "Blodwyn Pig" ISRC GBAYK0600056 INDEX 00 48:22:40 INDEX 01 48:24:04 TRACK 13 AUDIO TITLE "Same Old Story" PERFORMER "Blodwyn Pig" ISRC GBAYK0600057 INDEX 00 52:06:15 INDEX 01 52:08:23 TRACK 14 AUDIO TITLE "Slow Down" PERFORMER "Blodwyn Pig" ISRC GBAYK0600058 INDEX 00 54:43:70 INDEX 01 54:45:04 TRACK 15 AUDIO TITLE "Meanie Mornay" PERFORMER "Blodwyn Pig" ISRC GBAYK0600059 INDEX 00 59:02:73 INDEX 01 59:05:09 TRACK 16 AUDIO TITLE "Backwash" PERFORMER "Blodwyn Pig" ISRC GBAYK0600060 INDEX 00 63:49:27 INDEX 01 63:50:64
[CUETools log; Date: 24.09.2012 14:17:23; Version: 2.1.4][CTDB TOCID: qaJi8qPNL4xkoOY6yBnKbqkKNy8-] found.Track | CTDB Status 1 | (8/8) Accurately ripped 2 | (7/8) Accurately ripped 3 | (8/8) Accurately ripped 4 | (8/8) Accurately ripped 5 | (8/8) Accurately ripped 6 | (8/8) Accurately ripped 7 | (8/8) Accurately ripped 8 | (8/8) Accurately ripped 9 | (8/8) Accurately ripped 10 | (8/8) Accurately ripped 11 | (8/8) Accurately ripped 12 | (8/8) Accurately ripped 13 | (8/8) Accurately ripped 14 | (8/8) Accurately ripped 15 | (8/8) Accurately ripped 16 | (8/8) Accurately ripped[AccurateRip ID: 002853a6-01e0fcda-cb0f2c10] found.Track [ CRC | V2 ] Status 01 [06e8000f|e457c89e] (07+00/24) Accurately ripped 02 [f775f72c|b2b0fbea] (07+00/24) Accurately ripped 03 [027e3df5|2490641e] (06+00/23) Accurately ripped 04 [0cdfb87d|f5338eb2] (07+00/24) Accurately ripped 05 [78f9b275|50519bb0] (07+00/24) Accurately ripped 06 [114b129a|67a9a6b9] (06+00/23) Accurately ripped 07 [24262dce|586e733b] (07+00/23) Accurately ripped 08 [3f296a04|7bd67f81] (07+00/24) Accurately ripped 09 [037fa57b|d6f74e84] (06+00/22) Accurately ripped 10 [b7580816|f2e4d4b0] (05+00/22) Accurately ripped 11 [1d6eb10f|76311fdd] (06+00/23) Accurately ripped 12 [073ba32e|0a422f90] (05+00/22) Accurately ripped 13 [6ab4fff5|69c14793] (05+00/22) Accurately ripped 14 [cb9647b6|a8167ce7] (05+00/22) Accurately ripped 15 [a547e00d|95d60138] (06+00/23) Accurately ripped 16 [7562a240|bf406482] (05+00/22) Accurately rippedOffsetted by -664: 01 [229e1204] (11/24) Accurately ripped 02 [b93c3649] (11/24) Accurately ripped 03 [d17493e3] (11/23) Accurately ripped 04 [d42da9ad] (11/24) Accurately ripped 05 [3620e8f9] (11/24) Accurately ripped 06 [fcd8cbf2] (11/23) Accurately ripped 07 [b4e50024] (10/23) Accurately ripped 08 [49caff56] (11/24) Accurately ripped 09 [08d29a59] (10/22) Accurately ripped 10 [133fdd2e] (11/22) Accurately ripped 11 [4c0c8b77] (11/23) Accurately ripped 12 [d655393a] (11/22) Accurately ripped 13 [bdd143a8] (11/22) Accurately ripped 14 [55b142c7] (11/22) Accurately ripped 15 [4e90c522] (11/23) Accurately ripped 16 [f9caf676] (11/22) Accurately rippedOffsetted by 664: 01 [dcace16d] (03/24) Accurately ripped 02 [88da914a] (03/24) Accurately ripped 03 [924afbe9] (03/23) Accurately ripped 04 [487bf0c8] (03/24) Accurately ripped 05 [bd8962ce] (03/24) Accurately ripped 06 [25bd5942] (03/23) Accurately ripped 07 [77566371] (03/23) Accurately ripped 08 [ae1b1ec2] (03/24) Accurately ripped 09 [810126d4] (03/22) Accurately ripped 10 [b6f1133e] (03/22) Accurately ripped 11 [d6d5451a] (03/23) Accurately ripped 12 [18dd7971] (03/22) Accurately ripped 13 [e05b4fa7] (03/22) Accurately ripped 14 [3752863a] (03/22) Accurately ripped 15 [41ae385e] (03/23) Accurately ripped 16 [d2559223] (03/22) Accurately ripped

Track Peak [ CRC32 ] [W/O NULL] [ LOG ] -- 99,2 [DDFC0172] [4407E2BE] CRC32 01 99,1 [1C1E6968] [82C558D7] 02 95,8 [FDDF01FB] [897F3DC8] 03 99,1 [697F7EB3] [3A1EF0DC] 04 99,1 [6BAFAD9D] [1DFD8416] 05 99,2 [CB0D1D35] [E8C59045] 06 99,0 [9398B3B2] [3B320C53] 07 98,7 [B7627D4A] [4D47870F] 08 99,2 [7681BDB0] [569F5E52] 09 99,2 [6B20F274] [1B60CE4E] 10 99,2 [2FABB584] [619BACCD] 11 99,1 [E3567FD4] [9D20F201] 12 99,2 [B7F165AA] [DC8601CB] 13 99,2 [E69A7636] [32AF2115] 14 99,2 [074DFC9A] [7738623C] 15 99,2 [A5540B81] [82F9F290] 16 53,4 [7B9DD5E6] [1B0024C3]
foobar2000 1.1.1 / Dynamic Range Meter 1.1.1log date: 2012-09-24 14:26:52

--------------------------------------------------------------------------------Analyzed: Blodwyn Pig / Ahead Rings Out [EMI 0946 357685 2 7]--------------------------------------------------------------------------------

DR Peak RMS Duration Track--------------------------------------------------------------------------------DR9 -0.08 dB -10.95 dB 3:24 01-It's Only LoveDR10 -0.36 dB -12.35 dB 5:19 02-Dear JillDR9 -0.07 dB -10.98 dB 3:09 03-Sing Me a Song That I KnowDR10 -0.07 dB -12.64 dB 5:39 04-The Modern AlchemistDR10 -0.07 dB -12.27 dB 5:31 05-Up and ComingDR10 -0.08 dB -11.93 dB 3:52 06-Leave It with MeDR12 -0.11 dB -17.01 dB 3:45 07-The Change SongDR7 -0.07 dB -8.83 dB 5:07 08-See My WayDR8 -0.07 dB -9.83 dB 6:05 09-Ain't Ya Comin' Home, Babe?DR8 -0.07 dB -9.55 dB 2:51 10-Sweet CarolineDR9 -0.07 dB -11.18 dB 3:43 11-Walk on WaterDR8 -0.07 dB -9.37 dB 3:44 12-Summer DayDR9 -0.07 dB -10.58 dB 2:37 13-Same Old StoryDR10 -0.07 dB -12.23 dB 4:20 14-Slow DownDR8 -0.07 dB -9.07 dB 4:46 15-Meanie MornayDR8 -5.44 dB -20.37 dB 0:53 16-Backwash--------------------------------------------------------------------------------

Number of tracks: 16Official DR value: DR9

Samplerate: 44100 HzChannels: 2Bits per sample: 16Bitrate: 873 kbpsCodec: FLAC

• Mick Abrahams – guitar, vocals, seven-string slide guitar
• Jack Lancaster – flute, violin, tenor sax, baritone sax, soprano sax, brass arrangements
• Andy Pyle – Electric bass, six-string bass
• Ron Berg – drums
Огромное спасибо автору рипа!

Трекер:  [ 27-Сен-2012 19:06 ]

  

Скачать .torrent

Размер .torrent файла 20 KB


Размер: 462 MB
Хэш (hash) релиза: 01d86b1a3577fae784a643628ebc98d52aa42aeb

Еще никто не оставлял запись к записи скачать торрент Blodwyn Pig . Будь первым!

!Обратная связь