Скачать через торрент музыку PTS - Nightlines бесплатно без регистрации torrent

Если у вас наблюдаются проблемы со скриншотами, переходом по ссылками, скачиванием торрентов - проблемы в блокировщике рекламы AdBlock. #хорошегоДня!


Статистика раздачи
Размер:  244 MB   |    Зарегистрирован:  4 года 10 месяцев   |    .torrent скачан:  6 раз   |   
Раздают:  1  
   
Загрузка...
 
Автор Сообщение

Galfimbul

avatar Galfimbul


PTS - Nightlines

Жанр: Neo Progressive
Год выпуска диска: 1992
Страна: Netherlands
Label: self-release
Catalog Nr.: PTSCD-01
Аудио кодек: FLAC
Тип рипа: image+.cue(test&copy)
Битрейт аудио: lossless
Продолжительность: 42:16
Источник: hyperborea70


Трэклист:

1. Labyrinth (5:42)
2. The Pain Underneath (4:55)
3. Nightlines (5:42)
4. Welcome To The Real World (5:47)
5. Out Of The Haze (4:06)
6. We Separate (5:31)
7. Peter Pan (Part 1) (4:19)
8. Peter Pan (Part 2) (1:37)
9. Afterglow (4:35)

Total Time: 42:16

Музыканты

- Marco Kerssies / bass, backing vocals
- Ron van Kruistum / guitars, backing vocals
- Simon Veenhuis / keyboards
- Le Coq / vocals, drums

Об альбоме: Дебютный альбом четырёхальбомной дискографии замечательной голландской команды.
Рип сделан и представлен к раздаче hyperborea70, все благодарности за это адресуются ему.
Не смотря на то, что на ПА у дебютника довольно низкий рейтинг, мне альбом понравился. А ожидающие забытых шедевров, могут не утруждать себя скачиванием материала.
Второй и третий альбомы присутствуют на трекере. Четвёртый альбом, по прежнему, в розыске.
Exact Audio Copy V1.0 beta 3 from 29. August 2011

Отчёт EAC об извлечении, выполненном 18. сентября 2012, 21:17

PTS / Nightlines

Дисковод: Optiarc DVD RW AD-7203A Adapter: 0 ID: 1

Режим чтения : Достоверность
Использование точного потока : Да
Отключение кэша аудио : Да
Использование указателей C2 : Нет

Коррекция смещения при чтении : 48
Способность читать области Lead-in и Lead-out : Нет
Заполнение пропущенных сэмплов тишиной : Да
Удаление блоков с тишиной в начале и конце : Нет
При вычислениях CRC использовались нулевые сэмплы : Да
Интерфейс : Встроенный Win32-интерфейс для Win NT/2000

Выходной формат : Внутренние WAV-операции
Формат сэмплов : 44.100 Гц; 16 бит; стерео

TOC извлечённого CD

Трек | Старт | Длительность | Начальный сектор | Конечный сектор
---------------------------------------------------------------------
1 | 0:00.33 | 5:42.07 | 33 | 25689
2 | 5:42.40 | 4:54.38 | 25690 | 47777
3 | 10:37.03 | 5:42.37 | 47778 | 73464
4 | 16:19.40 | 5:47.10 | 73465 | 99499
5 | 22:06.50 | 4:05.68 | 99500 | 117942
6 | 26:12.43 | 5:30.52 | 117943 | 142744
7 | 31:43.20 | 4:19.18 | 142745 | 162187
8 | 36:02.38 | 1:36.65 | 162188 | 169452
9 | 37:39.28 | 4:35.00 | 169453 | 190077

Характеристики диапазона извлечения и сообщения об ошибках

Выбранный диапазон

Имя файла F:\Загрузки\PTS\PTS - Nightlines.wav

Пиковый уровень 100.0 %
Скорость извлечения 2.4 X
Качество диапазона 100.0 %
CRC теста DD4DD2C4
CRC копии DD4DD2C4
Копирование... OK

Ошибок не произошло

AccurateRip: сводка

Трек 1 : извлечено точно (доверие 1) [9564BC8E] (AR v1)
Трек 2 : извлечено точно (доверие 1) [94054B6F] (AR v1)
Трек 3 : извлечено точно (доверие 1) [A4FC0E5F] (AR v1)
Трек 4 : извлечено точно (доверие 1) [0077E3D5] (AR v1)
Трек 5 : извлечено точно (доверие 1) [B7F2828F] (AR v1)
Трек 6 : извлечено точно (доверие 1) [4232C2D7] (AR v1)
Трек 7 : извлечено точно (доверие 1) [C21FD836] (AR v1)
Трек 8 : извлечено точно (доверие 1) [A10D49F6] (AR v1)
Трек 9 : извлечено точно (доверие 1) [34117DB0] (AR v1)

Все треки извлечены точно

Конец отчёта
Коврики 300dpi в комплекте.
Progarchives info

Трекер:  [ 27-Сен-2012 19:06 ]

  

Скачать .torrent

Размер .torrent файла 20 KB


Размер: 244 MB
Хэш (hash) релиза: 7ec502f42467c68b60c44c247c2f40e230b6ec

Еще никто не оставлял запись к записи скачать торрент PTS - Nightlines . Будь первым!

!Обратная связь