Скачать через торрент Средь бела дня The Cold Light of Day бесплатно русская версия torrent активатор

Если у вас наблюдаются проблемы со скриншотами, переходом по ссылками, скачиванием торрентов - проблемы в блокировщике рекламы AdBlock. #хорошегоДня!


Статистика раздачи
Размер:  1.89 GB   |    Зарегистрирован:  5 лет   |    .torrent скачан:  594 раза   |   
Раздают:  1  
   
Загрузка...
 
Автор Сообщение

L


Средь бела дня / The Cold Light of Day

«Будь осторожен даже с теми, кому доверяешь»

Год выпуска: 2012
Страна: США, Galavis Film, Fria Luz Del Dia, A.I.E., Picture Machine, Summit Entertainment
Жанр: Боевик, триллер
Продолжительность: 01:33:33
Перевод : Профессиональный (дублированный)
Английские субтитры: есть

Режиссёр: Мабрук Эль Мекри/Mabrouk El Mechri

В ролях: Генри Кавилл, Сигурни Уивер, Вероника Эчеги, Рошди Зем, Джозеф Моул, Оскар Хаенада, Кэролайн Гудолл, Брюс Уиллис, Рафи Гаврон, Эмма Хэмилтон, Джим Пиддок, Майкл Бадд, Джо Диксон, Ферми Рейксач, Лоло Херреро, Александр Амарал, Палома Блойд, Симон Андреу, Морган Джонсон, Андреа Рос, Карлос Мартинез, Хосе Алиас, Сильвия Сабате, Колм Мини, Лаура Байонас, Дэвид Хернандез Силва, Хавьер Пинто, Паула Сольдевила

Описание: Испания, море, яхта — отпуск с поднадоевшей молодому Уиллу Шоу компанией родственников… Никто не мог предположить, что уже через несколько часов палуба яхты обагрится кровью, а члены семьи Шоу станут заложниками в руках неизвестных. В поисках родных Уилл невольно узнает о государственном заговоре и раскрывает тайны своего отца. У парня всего несколько часов, чтобы спасти семью и страну от гибели.

Доп. информация:

Исходник:Средь бела дня / The Cold Light of Day / 2012 / ДБ, СТ / Blu-Ray Remux (1080p) (Кинозал)

Качество: BDRip
Формат: *.mp4
Видео кодек: H.264
аудио кодек: ААС
Разрешение: 1024x432
Другие параметры видео: 2550kbit/s; 23.976fps
Аудио 1: Rus 160kbit/s; 2ch; 48KHz
Аудио 2: Eng 160kbit/s; 2ch; 48KHz
Общее
Полное имя : C:\Handbrake\Sred.bela.dnja.2012.x264.BDRip.1024x.mp4.m4v
Формат : MPEG-4
Идентификатор кодека : M4V
Размер файла : 1,89 Гбайт
Продолжительность : 1 ч. 33 м.
Режим общего битрейта : Переменный
Общий поток : 2885 Кбит/сек
Название фильма : Средь бела дня
Исполнитель : Мабрук Эль Мекри
Жанр : Thriller
Дата записи : 2012-09-10T07:00:00Z
Дата кодирования : UTC 2012-09-21 21:51:42
Дата пометки : UTC 2012-09-21 22:22:54
Программа кодирования : MkvToMp4 []www.mkvtomp4.ru] version 0.221a
Обложка : Yes
iTunEXTC : mpaa|PG-13|300|
iTunMOVI : <?xml version="1.0" encoding="UTF-8"?> / <!DOCTYPE plist PUBLIC "-//Apple//DTD PLIST 1.0//EN" "http://www.apple.com/DTDs/PropertyList-1.0.dtd"> / <plist version="1.0"> / <dict> / <key>cast</key> / <array> / <dict> / <key>name</key> / <string>Генри Кавилл</string> / </dict> / <dict> / <key>name</key> / <string>Сигурни Уивер</string> / </dict> / <dict> / <key>name</key> / <string>Вероника Эчеги</string> / </dict> / </array> / <key>directors</key> / <array> / <dict> / <key>name</key> / <string>Мабрук Эль Мекри</string> / </dict> / </array> / <key>producers</key> / <array> / <dict> / <key>name</key> / <string>Тревор Мэйси</string> / </dict> / <dict> / <key>name</key> / <string>Марк Д. Эванс</string> / </dict> / <dict> / <key>name</key> / <string>Стивен Зеллиан</string> / </dict> / </array> / <key>screenwriters</key> / <array> / <dict> / <key>name</key> / <string>Скотт Вайпер</string> / </dict> / <dict> / <key>name</key> / <string>Джон Петро</string> / </dict> / </array> / </dict> / </plist>
tven : trackId: 551873418
desc : Испания, море, яхта — отпуск с поднадоевшей молодому Уиллу Шоу компанией родственников… Никто не мог предположить, что уже через несколько часов палуба яхты обагрится кровью.
ldes : Испания, море, яхта — отпуск с поднадоевшей молодому Уиллу Шоу компанией родственников… Никто не мог предположить, что уже через несколько часов палуба яхты обагрится кровью, а члены семьи Шоу станут заложниками в руках неизвестных. В поисках родных Уилл невольно узнает о государственном заговоре и раскрывает тайны своего отца. У парня всего несколько часов, чтобы спасти семью и страну от гибели.
hdvd : 0
stik : 9

Видео
Идентификатор : 1
Формат : AVC
Формат/Информация : Advanced Video Codec
Профиль формата : <a href="mailto:High@L4.0" class="postLink">High@L4.0</a>
Параметр CABAC формата : Да
Параметр ReFrames формата : 9 кадров
Идентификатор кодека : avc1
Идентификатор кодека/Информация : Advanced Video Coding
Продолжительность : 1 ч. 33 м.
Битрейт : 2550 Кбит/сек
Максимальный битрейт : 18,8 Мбит/сек
Ширина : 1024 пикселя
Высота : 432 пикселя
Соотношение сторон : 2,40:1
Режим частоты кадров : Постоянный
Частота кадров : 23,976 кадра/сек
Цветовое пространство : YUV
Субдискретизация насыщенности : 4:2:0
Битовая глубина : 8 бит
Тип развёртки : Прогрессивная
Бит/(Пиксели*Кадры) : 0.240
Размер потока : 1,67 Гбайт (88%)
Библиотека кодирования : x264 core 120
Настройки программы : cabac=1 / ref=9 / deblock=1:0:0 / analyse=0x3:0x113 / me=umh / subme=9 / psy=1 / psy_rd=1.00:0.00 / mixed_ref=1 / me_range=32 / chroma_me=1 / trellis=1 / 8x8dct=1 / cqm=0 / deadzone=21,11 / fast_pskip=1 / chroma_qp_offset=-2 / threads=12 / sliced_threads=0 / nr=0 / decimate=1 / interlaced=0 / bluray_compat=0 / constrained_intra=0 / bframes=6 / b_pyramid=2 / b_adapt=2 / b_bias=0 / direct=1 / weightb=1 / open_gop=0 / weightp=2 / keyint=240 / keyint_min=24 / scenecut=40 / intra_refresh=0 / rc_lookahead=40 / rc=2pass / mbtree=1 / bitrate=2550 / ratetol=1.0 / qcomp=0.60 / qpmin=3 / qpmax=69 / qpstep=4 / cplxblur=20.0 / qblur=0.5 / ip_ratio=1.40 / aq=1:1.00
Язык : English
Дата кодирования : UTC 2012-09-21 21:51:42
Дата пометки : UTC 2012-09-21 21:53:34
Основные цвета : BT.709
Характеристики трансфера : BT.709
Коэффициенты матрицы : BT.709

Аудио #1
Идентификатор : 2
Формат : AAC
Формат/Информация : Advanced Audio Codec
Профиль формата : LC
Идентификатор кодека : 40
Продолжительность : 1 ч. 33 м.
Вид битрейта : Переменный
Битрейт : 160 Кбит/сек
Максимальный битрейт : 263 Кбит/сек
Каналы : 2 канала
Расположение каналов : Front: L R
Частота : 48,0 КГц
Метод сжатия : С потерями
Размер потока : 107 Мбайт (6%)
Язык : Russian
Дата кодирования : UTC 2012-09-21 21:52:43
Дата пометки : UTC 2012-09-21 21:53:34

Аудио #2
Идентификатор : 3
Формат : AAC
Формат/Информация : Advanced Audio Codec
Профиль формата : LC
Идентификатор кодека : 40
Продолжительность : 1 ч. 33 м.
Вид битрейта : Переменный
Битрейт : 159 Кбит/сек
Максимальный битрейт : 209 Кбит/сек
Каналы : 1 канал
Расположение каналов : Front: C
Частота : 48,0 КГц
Метод сжатия : С потерями
Размер потока : 106 Мбайт (6%)
Язык : English
Дата кодирования : UTC 2012-09-21 21:53:13
Дата пометки : UTC 2012-09-21 21:53:34

Текст #1
Идентификатор : 4
Формат : Timed text
Режим смешивания : sbtl
Идентификатор кодека : tx3g
Продолжительность : 1 ч. 27 м.
Вид битрейта : Переменный
Битрейт : 49 бит/сек
Размер потока : 31,5 Кбайт (0%)
Язык : English
Дата кодирования : UTC 2012-09-21 21:53:34
Дата пометки : UTC 2012-09-21 21:53:34

Текст #2
Идентификатор : 5
Формат : Apple text
Идентификатор кодека : text
Продолжительность : 1 ч. 33 м.
Вид битрейта : Переменный
Битрейт : 0 бит/сек
Размер потока : 315 байт (0%)
Дата кодирования : UTC 2012-09-21 21:55:25
Дата пометки : UTC 2012-09-21 21:55:25
Media Type: Movie
iPad:vendor_id:2012- 454079
contentID- 454079
trackId: 551873418
ScreenWriters: Скотт Вайпер, Джон Петро
Producers: Тревор Мэйси, Марк Д. Эванс, Стивен Зеллиан
Director: Мабрук Эль Мекри
Cast: Генри Кавилл, Сигурни Уивер, Вероника Эчеги
Rating: PG-13
Long Description: Испания, море, яхта — отпуск с поднадоевшей молодому Уиллу Шоу компанией родственников… Никто не мог предположить, что уже через несколько часов палуба яхты обагрится кровью, а члены семьи Шоу станут заложниками в руках неизвестных. В поисках родных Уилл невольно узнает о государственном заговоре и раскрывает тайны своего отца. У парня всего несколько часов, чтобы спасти семью и страну от гибели.
Description: Испания, море, яхта — отпуск с поднадоевшей молодому Уиллу Шоу компанией родственников… Никто не мог предположить, что уже через несколько часов палуба яхты обагрится кровью.
Release Date: 2012-09-10T07:00:00Z
Genre: Thriller
Artist: Мабрук Эль Мекри
Name: Средь бела дня
x264 [info]: frame I:1189 Avg QP:13.98 size: 70177 PSNR Mean Y:48.85 U:50.90 V:51.28 Avg:49.45 Global:48.85
x264 [info]: frame P:34378 Avg QP:16.80 size: 25078 PSNR Mean Y:46.91 U:49.40 V:49.41 Avg:47.53 Global:46.46
x264 [info]: frame B:99031 Avg QP:18.78 size: 8514 PSNR Mean Y:45.18 U:48.34 V:48.50 Avg:45.98 Global:45.21
x264 [info]: consecutive B-frames: 4.8% 4.8% 7.8% 34.7% 12.7% 17.8% 17.4%
x264 [info]: mb I I16..4: 9.7% 69.8% 20.5%
x264 [info]: mb P I16..4: 2.6% 12.2% 3.2% P16..4: 33.6% 25.0% 15.2% 0.0% 0.0% skip: 8.1%
x264 [info]: mb B I16..4: 0.2% 1.4% 0.4% B16..8: 42.8% 12.7% 3.7% direct: 5.2% skip:33.7% L0:45.1% L1:46.0% BI: 8.9%
x264 [info]: 8x8 transform intra:68.2% inter:68.1%
x264 [info]: coded y,uvDC,uvAC intra: 83.2% 85.1% 66.2% inter: 30.7% 27.2% 6.2%
x264 [info]: i16 v,h,dc,p: 31% 24% 9% 37%
x264 [info]: i8 v,h,dc,ddl,ddr,vr,hd,vl,hu: 8% 11% 4% 10% 14% 13% 15% 11% 13%
x264 [info]: i4 v,h,dc,ddl,ddr,vr,hd,vl,hu: 7% 15% 3% 9% 14% 12% 15% 10% 15%
x264 [info]: i8c dc,h,v,p: 40% 27% 17% 16%
x264 [info]: Weighted P-Frames: Y:3.5% UV:2.1%
x264 [info]: ref P L0: 49.0% 9.3% 16.5% 7.1% 5.6% 4.2% 3.6% 2.2% 2.1% 0.4% 0.0%
x264 [info]: ref B L0: 70.0% 13.1% 6.8% 3.8% 2.6% 2.1% 1.1% 0.4%
x264 [info]: ref B L1: 90.9% 9.1%
x264 [info]: SSIM Mean Y:0.9822055 (17.497db)
x264 [info]: PSNR Mean Y:45.652 U:48.630 V:48.757 Avg:46.409 Global:45.517 kb/s:2549.06


Трекер:  [ 24-Сен-2012 07:16 ]

  

Скачать .torrent

Размер .torrent файла 19 KB


Размер: 1.89 GB
Хэш (hash) релиза: 10ff64ad2dd5681d4ffe40f30bf054a919f9f9db

Еще никто не оставлял запись к записи скачать торрент Средь бела дня The Cold Light of Day . Будь первым!

!Обратная связь