Скачать через торрент музыку Poco - Blue And Gray - 1981, FLAC бесплатно без регистрации torrent

Если у вас наблюдаются проблемы со скриншотами, переходом по ссылками, скачиванием торрентов - проблемы в блокировщике рекламы AdBlock. #хорошегоДня!


Статистика раздачи
Размер:  248 MB   |    Зарегистрирован:  5 лет 2 месяца   |    .torrent скачан:  17 раз   |   
Раздают:  1  
   
Загрузка...
 
Автор Сообщение

Galfimbul

avatar Galfimbul


Poco / Blue And Gray (1981)

Жанр: Classic Rock/Country Rock
Страна-производитель диска: U.S.A
Издатель (лейбл): One Way Records
Номер по каталогу: MCAD-22068
Страна: U.S.A
Аудиокодек: FLAC (*.flac)
Тип рипа: tracks+.cue
Битрейт аудио: lossless
Продолжительность: 37:02
Источник (релизер): what.cd (MrWobble)
Наличие сканов в содержимом раздачи: да

Треклист:
1. Glory Bound - 3:25
2. Blue And Gray - 4:41
3. Streets Of Paradise - 3:52
4. Writing On The Wall - 2:38
5. Down On The River Again - 3:44
6. Please Wait For Me - 4:38
7. Widowmaker - 3:42
8. Here Comes That Girl Again - 3:09
9. Sometimes (We Are All We Got) - 3:40
10. Land of Glory - 3:33
Exact Audio Copy V0.99 prebeta 5 from 4. May 2009

EAC extraction logfile from 13. August 2010, 14:18

Poco / Blue and Gray

Used drive : TSSTcorpDVD+-RW TS-L633A Adapter: 2 ID: 0

Read mode : SecureUtilize accurate stream : YesDefeat audio cache : YesMake use of C2 pointers : No

Read offset correction : 6Overread into Lead-In and Lead-Out : NoFill up missing offset samples with silence : YesDelete leading and trailing silent blocks : NoNull samples used in CRC calculations : YesUsed interface : Native Win32 interface for Win NT & 2000Gap handling : Appended to previous track

Used output format : User Defined EncoderSelected bitrate : 768 kBit/sQuality : HighAdd ID3 tag : NoCommand line compressor : C:\Program Files\Exact Audio Copy\FLAC\FLAC.EXEAdditional command line options : -V -8 -T "artist=%a" -T "title=%t" -T "album=%g" -T "date=%y" -T "tracknumber=%n" -T "genre=%m" %s

TOC of the extracted CD

Track | Start | Length | Start sector | End sector --------------------------------------------------------- 1 | 0:00.37 | 3:23.35 | 37 | 15296 2 | 3:23.72 | 4:39.20 | 15297 | 36241 3 | 8:03.17 | 3:50.23 | 36242 | 53514 4 | 11:53.40 | 3:13.67 | 53515 | 68056 5 | 15:07.32 | 3:42.08 | 68057 | 84714 6 | 18:49.40 | 4:36.47 | 84715 | 105461 7 | 23:26.12 | 3:40.25 | 105462 | 121986 8 | 27:06.37 | 3:07.18 | 121987 | 136029 9 | 30:13.55 | 3:38.42 | 136030 | 152421 10 | 33:52.22 | 3:33.03 | 152422 | 168399

Track 1

Filename O:\bittorrent\Poco - 1981 - Blue and Gray\01 - Glorybound.wav

Pre-gap length 0:00:02.37

Peak level 97.7 % Track quality 100.0 % Test CRC D1F87022 Copy CRC D1F87022 Accurately ripped (confidence 3) [2FFD73D8] Copy OK

Track 2

Filename O:\bittorrent\Poco - 1981 - Blue and Gray\02 - Blue and Gray.wav

Peak level 78.3 % Track quality 99.9 % Test CRC 2E259A51 Copy CRC 2E259A51 Accurately ripped (confidence 3) [2380CE81] Copy OK

Track 3

Filename O:\bittorrent\Poco - 1981 - Blue and Gray\03 - Streets of Paradise.wav

Peak level 81.3 % Track quality 100.0 % Test CRC 7DD1AC56 Copy CRC 7DD1AC56 Accurately ripped (confidence 3) [7242AE3E] Copy OK

Track 4

Filename O:\bittorrent\Poco - 1981 - Blue and Gray\04 - The Writing on the Wall.wav

Pre-gap length 0:00:01.22

Copy aborted

Track 5

Filename O:\bittorrent\Poco - 1981 - Blue and Gray\05 - Down on the River Again.wav

Pre-gap length 0:00:00.40

Peak level 73.4 % Track quality 100.0 % Test CRC 5F2156B4 Copy CRC 5F2156B4 Accurately ripped (confidence 3) [2439C9CA] Copy OK

Track 6

Filename O:\bittorrent\Poco - 1981 - Blue and Gray\06 - Please Wait for Me.wav

Pre-gap length 0:00:01.08

Peak level 89.5 % Track quality 99.9 % Test CRC 54D85334 Copy CRC 54D85334 Accurately ripped (confidence 3) [C19F9237] Copy OK

Track 7

Filename O:\bittorrent\Poco - 1981 - Blue and Gray\07 - Widowmaker.wav

Pre-gap length 0:00:00.14

Peak level 100.0 % Track quality 100.0 % Test CRC DEBF8000 Copy CRC DEBF8000 Accurately ripped (confidence 4) [2A662184] Copy OK

Track 8

Filename O:\bittorrent\Poco - 1981 - Blue and Gray\08 - Here Comes That Girl Again.wav

Pre-gap length 0:00:01.05

Peak level 83.4 % Track quality 100.0 % Test CRC 0F32B1ED Copy CRC 0F32B1ED Accurately ripped (confidence 2) [A0D74042] Copy OK

Track 9

Filename O:\bittorrent\Poco - 1981 - Blue and Gray\09 - Sometimes (We Are All We Got).wav

Pre-gap length 0:00:00.21

Peak level 93.6 % Track quality 100.0 % Test CRC 6142608F Copy CRC 6142608F Accurately ripped (confidence 2) [6A6CE6B3] Copy OK

Track 10

Filename O:\bittorrent\Poco - 1981 - Blue and Gray\10 - The Land of Glory.wav

Pre-gap length 0:00:00.57

Peak level 91.1 % Track quality 100.0 % Test CRC 575DC70C Copy CRC 575DC70C Accurately ripped (confidence 3) [F6CB3F3C] Copy OK

9 track(s) accurately ripped 1 track(s) canceled

Some tracks could not be verified as accurate

There were errors

End of status report
REM DATE 1981REM DISCID 7508C50AREM COMMENT "ExactAudioCopy v0.99pb5"CATALOG 0000000000000PERFORMER "Poco"TITLE "Blue and Gray"FILE "Poco - 1981 - Blue and Gray\01 - Glorybound.wav" WAVE TRACK 01 AUDIO TITLE "Glorybound" PERFORMER "Poco" PREGAP 00:00:37 INDEX 01 00:00:00FILE "Poco - 1981 - Blue and Gray\02 - Blue and Gray.wav" WAVE TRACK 02 AUDIO TITLE "Blue and Gray" PERFORMER "Poco" INDEX 01 00:00:00FILE "Poco - 1981 - Blue and Gray\03 - Streets of Paradise.wav" WAVE TRACK 03 AUDIO TITLE "Streets of Paradise" PERFORMER "Poco" INDEX 01 00:00:00 TRACK 04 AUDIO TITLE "The Writing on the Wall" PERFORMER "Poco" INDEX 00 03:49:01FILE "Poco - 1981 - Blue and Gray\04 - The Writing on the Wall.wav" WAVE INDEX 01 00:00:00 TRACK 05 AUDIO TITLE "Down on the River Again" PERFORMER "Poco" INDEX 00 03:13:27FILE "Poco - 1981 - Blue and Gray\05 - Down on the River Again.wav" WAVE INDEX 01 00:00:00 TRACK 06 AUDIO TITLE "Please Wait for Me" PERFORMER "Poco" INDEX 00 03:41:00FILE "Poco - 1981 - Blue and Gray\06 - Please Wait for Me.wav" WAVE INDEX 01 00:00:00 TRACK 07 AUDIO TITLE "Widowmaker" PERFORMER "Poco" INDEX 00 04:36:33FILE "Poco - 1981 - Blue and Gray\07 - Widowmaker.wav" WAVE INDEX 01 00:00:00 TRACK 08 AUDIO TITLE "Here Comes That Girl Again" PERFORMER "Poco" INDEX 00 03:39:20FILE "Poco - 1981 - Blue and Gray\08 - Here Comes That Girl Again.wav" WAVE INDEX 01 00:00:00 TRACK 09 AUDIO TITLE "Sometimes (We Are All We Got)" PERFORMER "Poco" INDEX 00 03:06:72FILE "Poco - 1981 - Blue and Gray\09 - Sometimes (We Are All We Got).wav" WAVE INDEX 01 00:00:00 TRACK 10 AUDIO TITLE "The Land of Glory" PERFORMER "Poco" INDEX 00 03:37:60FILE "Poco - 1981 - Blue and Gray\10 - The Land of Glory.wav" WAVE INDEX 01 00:00:00


Трекер:  [ 24-Сен-2012 09:32 ]

  

Скачать .torrent

Размер .torrent файла 20 KB


Размер: 248 MB
Хэш (hash) релиза: e00c0ff75bc054e619503eaf002088b6c0ddc24f

Еще никто не оставлял запись к записи скачать торрент Poco - Blue And Gray - 1981, FLAC . Будь первым!

!Обратная связь