Скачать через торрент музыку Gary Moore - Blues For Jimi - 2012, Live album, FLAC бесплатно без регистрации torrent

Если у вас наблюдаются проблемы со скриншотами, переходом по ссылками, скачиванием торрентов - проблемы в блокировщике рекламы AdBlock. #хорошегоДня!


Статистика раздачи
Размер:  503 MB   |    Зарегистрирован:  5 лет   |    .torrent скачан:  156 раз   |   
Раздают:  2  
   
Загрузка...
 
Автор Сообщение

Galfimbul

avatar Galfimbul


Gary Moore / Blues For Jimi

Жанр: Rock, Hard Rock, Blues-Rock
Страна-производитель диска: EU
Год издания: 2012
Издатель (лейбл): Eagle Records
Номер по каталогу: EAGCD491
Страна: Great Britain
Аудиокодек: FLAC (*.flac)
Тип рипа: tracks+.cue
Битрейт аудио: lossless
Продолжительность: 01:13:26
Источник (релизер): Zoso56
Наличие сканов в содержимом раздачи: нет

Треклист:
01. Purple Haze (4:17)
02. Manic Depression (3:48)
03. Foxey Lady (6:14)
04. The Wind Cries Mary (4:19)
05. I Don't Live Today (5:58)
06. My Angel (0:54)
07. Angel (5:15)
08. Fire (5:38)
09. Red House (11:30)
10. Stone Free (5:45)
11. Hey Joe (9:35)
12. Voodoo Child (Slight Return) (10:13)

Запись альбома была сделана 25 октября 2007 года в Лондоне, на Ипподроме (Англия). Дата релиза в Европе - 24 сентября 2012.
X Lossless Decoder version 20120908 (141.1)

XLD extraction logfile from 2012-09-22 17:16:28 +0200

Gary Moore / Blues For Jimi

Used drive : HL-DT-ST DVDRW GX30N (revision RP09)

Ripper mode : XLD Secure RipperDisable audio cache : OK for the drive with a cache less than 1375KiBMake use of C2 pointers : NORead offset correction : 6Max retry count : 100Gap status : Analyzed, Appended

TOC of the extracted CD Track | Start | Length | Start sector | End sector --------------------------------------------------------- 1 | 00:00:00 | 04:16:45 | 0 | 19244 2 | 04:16:45 | 03:47:43 | 19245 | 36312 3 | 08:04:13 | 06:14:04 | 36313 | 64366 4 | 14:18:17 | 04:19:29 | 64367 | 83820 5 | 18:37:46 | 05:57:67 | 83821 | 110662 6 | 24:35:38 | 00:53:55 | 110663 | 114692 7 | 25:29:18 | 05:15:37 | 114693 | 138354 8 | 30:44:55 | 05:38:00 | 138355 | 163704 9 | 36:22:55 | 11:29:55 | 163705 | 215434 10 | 47:52:35 | 05:45:13 | 215435 | 241322 11 | 53:37:48 | 09:35:36 | 241323 | 284483 12 | 63:13:09 | 10:13:23 | 284484 | 330481

AccurateRip Summary Disc not found in AccurateRip DB.

All Tracks Album gain : -7.42 dB Peak : 1.000000 Statistics Read error : 0 Jitter error (maybe fixed) : 0 Retry sector count : 0 Damaged sector count : 0

Track 01 Filename : /Users/Kevin/Music/01 Gary Moore - Purple Haze.flac Pre-gap length : 00:02:00

Track gain : -8.00 dB Peak : 0.976074 CRC32 hash (test run) : 0F017EB2 CRC32 hash : 0F017EB2 CRC32 hash (skip zero) : 2D3B883B AccurateRip v1 signature : BCD7D75D AccurateRip v2 signature : 2AD0016E ->Track not present in AccurateRip database. Statistics Read error : 0 Jitter error (maybe fixed) : 0 Retry sector count : 0 Damaged sector count : 0

Track 02 Filename : /Users/Kevin/Music/02 Gary Moore - Manic Depression.flac

Track gain : -9.13 dB Peak : 0.979889 CRC32 hash (test run) : 6C101C88 CRC32 hash : 6C101C88 CRC32 hash (skip zero) : FA9A6794 AccurateRip v1 signature : 9DE4CFB6 AccurateRip v2 signature : 87A55C8C ->Track not present in AccurateRip database. Statistics Read error : 0 Jitter error (maybe fixed) : 0 Retry sector count : 0 Damaged sector count : 0

Track 03 Filename : /Users/Kevin/Music/03 Gary Moore - Foxey Lady.flac

Track gain : -7.46 dB Peak : 0.988190 CRC32 hash (test run) : 1976AB38 CRC32 hash : 1976AB38 CRC32 hash (skip zero) : B7522CFB AccurateRip v1 signature : DA8E3AE6 AccurateRip v2 signature : C0F49FBC ->Track not present in AccurateRip database. Statistics Read error : 0 Jitter error (maybe fixed) : 0 Retry sector count : 0 Damaged sector count : 0

Track 04 Filename : /Users/Kevin/Music/04 Gary Moore - The Wind Cries Mary.flac

Track gain : -6.44 dB Peak : 1.000000 CRC32 hash (test run) : DF81DB92 CRC32 hash : DF81DB92 CRC32 hash (skip zero) : 30DB3789 AccurateRip v1 signature : 089CB4FE AccurateRip v2 signature : B5137256 ->Track not present in AccurateRip database. Statistics Read error : 0 Jitter error (maybe fixed) : 0 Retry sector count : 0 Damaged sector count : 0

Track 05 Filename : /Users/Kevin/Music/05 Gary Moore - I Don't Live Today.flac

Track gain : -7.25 dB Peak : 0.978058 CRC32 hash (test run) : 2A064100 CRC32 hash : 2A064100 CRC32 hash (skip zero) : 196C835E AccurateRip v1 signature : 29ADB867 AccurateRip v2 signature : C9746863 ->Track not present in AccurateRip database. Statistics Read error : 0 Jitter error (maybe fixed) : 0 Retry sector count : 0 Damaged sector count : 0

Track 06 Filename : /Users/Kevin/Music/06 Gary Moore - My Angel.flac

Track gain : -1.79 dB Peak : 0.648956 CRC32 hash (test run) : 248CB466 CRC32 hash : 248CB466 CRC32 hash (skip zero) : 642A61ED AccurateRip v1 signature : C127444B AccurateRip v2 signature : 6A8A0423 ->Track not present in AccurateRip database. Statistics Read error : 0 Jitter error (maybe fixed) : 0 Retry sector count : 0 Damaged sector count : 0

Track 07 Filename : /Users/Kevin/Music/07 Gary Moore - Angel.flac

Track gain : -8.01 dB Peak : 0.993530 CRC32 hash (test run) : 30E7A5D8 CRC32 hash : 30E7A5D8 CRC32 hash (skip zero) : AFA02B6F AccurateRip v1 signature : 43BE4315 AccurateRip v2 signature : 21737306 ->Track not present in AccurateRip database. Statistics Read error : 0 Jitter error (maybe fixed) : 0 Retry sector count : 0 Damaged sector count : 0

Track 08 Filename : /Users/Kevin/Music/08 Gary Moore - Fire.flac

Track gain : -7.45 dB Peak : 0.980927 CRC32 hash (test run) : 696A864E CRC32 hash : 696A864E CRC32 hash (skip zero) : 8FC245DB AccurateRip v1 signature : C8016BC9 AccurateRip v2 signature : 55CF99F3 ->Track not present in AccurateRip database. Statistics Read error : 0 Jitter error (maybe fixed) : 0 Retry sector count : 0 Damaged sector count : 0

Track 09 Filename : /Users/Kevin/Music/09 Gary Moore - Red House.flac

Track gain : -6.83 dB Peak : 0.999969 CRC32 hash (test run) : FEC6D70F CRC32 hash : FEC6D70F CRC32 hash (skip zero) : F99BD253 AccurateRip v1 signature : A0C42043 AccurateRip v2 signature : 9B40CC26 ->Track not present in AccurateRip database. Statistics Read error : 0 Jitter error (maybe fixed) : 0 Retry sector count : 0 Damaged sector count : 0

Track 10 Filename : /Users/Kevin/Music/10 Gary Moore - Stone Free.flac

Track gain : -7.42 dB Peak : 0.986115 CRC32 hash (test run) : E599458D CRC32 hash : E599458D CRC32 hash (skip zero) : 608BB8DE AccurateRip v1 signature : 2A26D199 AccurateRip v2 signature : 432B44E9 ->Track not present in AccurateRip database. Statistics Read error : 0 Jitter error (maybe fixed) : 0 Retry sector count : 0 Damaged sector count : 0

Track 11 Filename : /Users/Kevin/Music/11 Gary Moore - Hey Joe.flac

Track gain : -7.41 dB Peak : 0.993744 CRC32 hash (test run) : 1B95FD40 CRC32 hash : 1B95FD40 CRC32 hash (skip zero) : D4F0CAE5 AccurateRip v1 signature : 60729C91 AccurateRip v2 signature : 5BE58A73 ->Track not present in AccurateRip database. Statistics Read error : 0 Jitter error (maybe fixed) : 0 Retry sector count : 0 Damaged sector count : 0

Track 12 Filename : /Users/Kevin/Music/12 Gary Moore - Voodoo Child (Slight Return).flac

Track gain : -6.68 dB Peak : 0.999939 CRC32 hash (test run) : E248222D CRC32 hash : E248222D CRC32 hash (skip zero) : 288CD0A0 AccurateRip v1 signature : AC37A681 AccurateRip v2 signature : 1CB7922D ->Track not present in AccurateRip database. Statistics Read error : 0 Jitter error (maybe fixed) : 0 Retry sector count : 0 Damaged sector count : 0

No errors occurred

End of status report
TITLE "Blues For Jimi"PERFORMER "Gary Moore"CATALOG 5034504149120REM GENRE "Blues"REM DATE "2012"REM DISCNUMBER 1REM TOTALDISCS 1REM DISCID B811360CREM REPLAYGAIN_ALBUM_GAIN -7.42 dBREM REPLAYGAIN_ALBUM_PEAK 1.000000FILE "01 Gary Moore - Purple Haze.flac" WAVE TRACK 01 AUDIO TITLE "Purple Haze" SONGWRITER "Jimi Hendrix" ISRC GBCBR1200280 REM REPLAYGAIN_TRACK_GAIN -8.00 dB REM REPLAYGAIN_TRACK_PEAK 0.976074 INDEX 01 00:00:00FILE "02 Gary Moore - Manic Depression.flac" WAVE TRACK 02 AUDIO TITLE "Manic Depression" SONGWRITER "Jimi Hendrix" ISRC GBCBR1200281 REM REPLAYGAIN_TRACK_GAIN -9.13 dB REM REPLAYGAIN_TRACK_PEAK 0.979889 INDEX 01 00:00:00FILE "03 Gary Moore - Foxey Lady.flac" WAVE TRACK 03 AUDIO TITLE "Foxey Lady" SONGWRITER "Jimi Hendrix" ISRC GBCBR1200282 REM REPLAYGAIN_TRACK_GAIN -7.46 dB REM REPLAYGAIN_TRACK_PEAK 0.988190 INDEX 01 00:00:00FILE "04 Gary Moore - The Wind Cries Mary.flac" WAVE TRACK 04 AUDIO TITLE "The Wind Cries Mary" SONGWRITER "Jimi Hendrix" ISRC GBCBR1200283 REM REPLAYGAIN_TRACK_GAIN -6.44 dB REM REPLAYGAIN_TRACK_PEAK 1.000000 INDEX 01 00:00:00FILE "05 Gary Moore - I Don't Live Today.flac" WAVE TRACK 05 AUDIO TITLE "I Don't Live Today" SONGWRITER "Jimi Hendrix" ISRC GBCBR1200284 REM REPLAYGAIN_TRACK_GAIN -7.25 dB REM REPLAYGAIN_TRACK_PEAK 0.978058 INDEX 01 00:00:00FILE "06 Gary Moore - My Angel.flac" WAVE TRACK 06 AUDIO TITLE "My Angel" SONGWRITER "Gary Moore" ISRC GBCBR1200285 REM REPLAYGAIN_TRACK_GAIN -1.79 dB REM REPLAYGAIN_TRACK_PEAK 0.648956 INDEX 01 00:00:00FILE "07 Gary Moore - Angel.flac" WAVE TRACK 07 AUDIO TITLE "Angel" SONGWRITER "Jimi Hendrix" ISRC GBCBR1200286 REM REPLAYGAIN_TRACK_GAIN -8.01 dB REM REPLAYGAIN_TRACK_PEAK 0.993530 INDEX 01 00:00:00FILE "08 Gary Moore - Fire.flac" WAVE TRACK 08 AUDIO TITLE "Fire" SONGWRITER "Jimi Hendrix" ISRC GBCBR1200287 REM REPLAYGAIN_TRACK_GAIN -7.45 dB REM REPLAYGAIN_TRACK_PEAK 0.980927 INDEX 01 00:00:00FILE "09 Gary Moore - Red House.flac" WAVE TRACK 09 AUDIO TITLE "Red House" SONGWRITER "Jimi Hendrix" ISRC GBCBR1200288 REM REPLAYGAIN_TRACK_GAIN -6.83 dB REM REPLAYGAIN_TRACK_PEAK 0.999969 INDEX 01 00:00:00FILE "10 Gary Moore - Stone Free.flac" WAVE TRACK 10 AUDIO TITLE "Stone Free" SONGWRITER "Jimi Hendrix" ISRC GBCBR1200289 REM REPLAYGAIN_TRACK_GAIN -7.42 dB REM REPLAYGAIN_TRACK_PEAK 0.986115 INDEX 01 00:00:00FILE "11 Gary Moore - Hey Joe.flac" WAVE TRACK 11 AUDIO TITLE "Hey Joe" SONGWRITER "Billy Roberts" ISRC GBCBR1200290 REM REPLAYGAIN_TRACK_GAIN -7.41 dB REM REPLAYGAIN_TRACK_PEAK 0.993744 INDEX 01 00:00:00FILE "12 Gary Moore - Voodoo Child (Slight Return).flac" WAVE TRACK 12 AUDIO TITLE "Voodoo Child (Slight Return)" SONGWRITER "Jimi Hendrix" ISRC GBCBR1200291 REM REPLAYGAIN_TRACK_GAIN -6.68 dB REM REPLAYGAIN_TRACK_PEAK 0.999939 INDEX 01 00:00:00
-----------------------

DON'T MODIFY THIS FILE

-----------------------

PERFORMER: auCDtect Task Manager, ver. 1.5.1RC4 build 1.5.1.5Copyright (c) 2008-2010 y-soft. All rights reservedhttp://y-soft.org

ANALYZER: auCDtect: CD records authenticity detector, version 0.8.2Copyright (c) 2004 Oleg Berngardt. All rights reserved.Copyright (c) 2004 Alexander Djourik. All rights reserved.

FILE: 12 Gary Moore - Voodoo Child (Slight Return).flac Size: 76301072 Hash: A8B1FA5DE0995CA9F2F2717CFBFDCBCA Accuracy: -m0 Conclusion: CDDA 100% Signature: 442F43B50B37C1338D621BE3F8438ADD58556AB8FILE: 11 Gary Moore - Hey Joe.flac Size: 69301375 Hash: 30AE776AF4A31FACE28227C0ED09BE60 Accuracy: -m0 Conclusion: CDDA 100% Signature: A6B47C87C4E55073BE8D13704D83D273A1A16521FILE: 10 Gary Moore - Stone Free.flac Size: 39769598 Hash: 240DC32E1E6796BF353D61D552D2AE13 Accuracy: -m0 Conclusion: CDDA 100% Signature: 6855E5E63739D6A5AC3A7B4B94B14E8994C6CC54FILE: 09 Gary Moore - Red House.flac Size: 78965951 Hash: 8079AAA41A0547B2EF2690196A465BF1 Accuracy: -m0 Conclusion: CDDA 100% Signature: 4D5FC37E7ED7D373EA8C55685829A66823CAAD1BFILE: 08 Gary Moore - Fire.flac Size: 39927420 Hash: 7CBFBF75CD912794BC08A0CB65341098 Accuracy: -m0 Conclusion: CDDA 100% Signature: DEA2C8D626BFFD4F2EC2C0C5892A9D2343884757FILE: 07 Gary Moore - Angel.flac Size: 37295847 Hash: 3E04D9A35A42B6C330EBAB3166A995EA Accuracy: -m0 Conclusion: CDDA 100% Signature: EE0240F121C9754482667B65C1F3FEE051FD2F56FILE: 06 Gary Moore - My Angel.flac Size: 4140609 Hash: 01700CEE04FA170C57A2B94D9649DE45 Accuracy: -m0 Conclusion: CDDA 100% Signature: 2AE113CFF2A29A36B2A2B3D3C75C4A01E05D8E10FILE: 05 Gary Moore - I Don't Live Today.flac Size: 44045735 Hash: 2DA8BF5F4707C58F414CD04B5A721078 Accuracy: -m0 Conclusion: CDDA 100% Signature: 038F01E535FC97BAB1C53B47276EA8AEEE43A174FILE: 04 Gary Moore - The Wind Cries Mary.flac Size: 29616696 Hash: D9C7DAFFD7D17CF4CA5A4E8FF908B9D8 Accuracy: -m0 Conclusion: CDDA 100% Signature: 9390FC54B9BF0A936F8CDFF3E80288A4D236CD86FILE: 03 Gary Moore - Foxey Lady.flac Size: 47209741 Hash: A419C8F46984A67D22C46D5C70A35B09 Accuracy: -m0 Conclusion: CDDA 100% Signature: C799879113FDD7A5594766E1007D182F386657AEFILE: 02 Gary Moore - Manic Depression.flac Size: 30465033 Hash: 5000FDD428CE1C219A5FB38FEC4AB8B0 Accuracy: -m0 Conclusion: CDDA 100% Signature: 39C98CCE9FF874A0D5C343D46416BF8AA2B79268FILE: 01 Gary Moore - Purple Haze.flac Size: 30794181 Hash: 231FF0AA4BC441D222265DD68CF716B4 Accuracy: -m0 Conclusion: CDDA 100% Signature: 0588E447705AFA68427631CC97FCA621EFF5BCBD


Трекер:  [ 24-Сен-2012 09:31 ]

  

Скачать .torrent

Размер .torrent файла 21 KB


Размер: 503 MB
Хэш (hash) релиза: 437e340171371a3c7ed72902e45512ccea83f98f

Еще никто не оставлял запись к записи скачать торрент Gary Moore - Blues For Jimi - 2012, Live album, FLAC . Будь первым!

!Обратная связь