Скачать через торрент музыку Action - Action - 2007, FLAC бесплатно без регистрации torrent

Если у вас наблюдаются проблемы со скриншотами, переходом по ссылками, скачиванием торрентов - проблемы в блокировщике рекламы AdBlock. #хорошегоДня!


Статистика раздачи
Размер:  422 MB   |    Зарегистрирован:  5 лет   |    .torrent скачан:  8 раз   |   
Раздают:  1  
   
Загрузка...
 
Автор Сообщение

Galfimbul

avatar Galfimbul


Action / Action (2007)

Жанр: Melodic Hard Rock
Страна-производитель диска: Россия
Год издания: 2008
Издатель (лейбл): Froniers/Irond
Номер по каталогу: 08-DD582
Страна: U.S.A
Аудиокодек: FLAC (*.flac)
Тип рипа: image+.cue
Битрейт аудио: lossless
Продолжительность: 47:48
Источник (релизер): собственный рип
Наличие сканов в содержимом раздачи: да

Треклист:
1. Without Your Love
2. Someday
3. Here In My Heart
4. Destiny
5. Forever
6. Loveless
7. Don't Leave Me Lonely
8. Heaven Tonight
9. Cinderella
10. Feel The Fire
11. Is It Love

Образованная в 1985 году американская группа ACTION, ведомая гитаристом-сонграйтером, взявшим себе псевдоним Чип, выпустила, наконец, свой первый альбом. Группа имеет огромный опыт сценической деятельности, ибо открывала в конце 80-х выступления Quiet Riot, Firehouse, Slaughter, Rough Cutt, Zebra и других многочисленных метал-героев, а сегодня сама имеет достойный концертный сет из крепкого материала в стиле melodic power/AOR. Сами участники описывают свою музыку как "Boston встречается с Journey, а при встрече присутствуют Def Leppard и Whitesnake".
Пресс-релиз от Irond.
Exact Audio Copy V1.0 beta 3 from 29. August 2011

EAC extraction logfile from 21. May 2012, 20:19

Action / Action

Used drive : SlimtypeDVD A DS8A5SH Adapter: 0 ID: 1

Read mode : SecureUtilize accurate stream : YesDefeat audio cache : YesMake use of C2 pointers : No

Read offset correction : 6Overread into Lead-In and Lead-Out : NoFill up missing offset samples with silence : YesDelete leading and trailing silent blocks : NoNull samples used in CRC calculations : YesUsed interface : Native Win32 interface for Win NT & 2000

Used output format : User Defined EncoderSelected bitrate : 320 kBit/sQuality : HighAdd ID3 tag : NoCommand line compressor : C:\Program Files (x86)\Exact Audio Copy\Flac\flac.exeAdditional command line options : -V -8 -T "Date=%year%" -T "Genre=%genre%" %source%

TOC of the extracted CD

Track | Start | Length | Start sector | End sector --------------------------------------------------------- 1 | 0:00.00 | 4:36.05 | 0 | 20704 2 | 4:36.05 | 3:33.42 | 20705 | 36721 3 | 8:09.47 | 4:01.55 | 36722 | 54851 4 | 12:11.27 | 5:23.34 | 54852 | 79110 5 | 17:34.61 | 4:48.03 | 79111 | 100713 6 | 22:22.64 | 3:16.00 | 100714 | 115413 7 | 25:38.64 | 4:26.70 | 115414 | 135433 8 | 30:05.59 | 3:28.01 | 135434 | 151034 9 | 33:33.60 | 5:16.67 | 151035 | 174801 10 | 38:50.52 | 5:12.24 | 174802 | 198225 11 | 44:03.01 | 3:45.19 | 198226 | 215119

Range status and errors

Selected range

Filename D:\My Music\Action - 2007 Action\Action - Action.wav

Peak level 98.8 % Extraction speed 4.4 X Range quality 100.0 % Test CRC D00EFDB5 Copy CRC D00EFDB5 Copy OK

No errors occurred

AccurateRip summary

Track 1 cannot be verified as accurate (confidence 2) [1859E3AB], AccurateRip returned [321E71F3] (AR v2)Track 2 cannot be verified as accurate (confidence 2) [122DBCD0], AccurateRip returned [C80681AD] (AR v2)Track 3 cannot be verified as accurate (confidence 2) [37DFCD35], AccurateRip returned [0B62296B] (AR v2)Track 4 cannot be verified as accurate (confidence 2) [00ACE70F], AccurateRip returned [0A4741EB] (AR v2)Track 5 cannot be verified as accurate (confidence 2) [22E1FCEA], AccurateRip returned [9DECB184] (AR v2)Track 6 cannot be verified as accurate (confidence 2) [76504DC1], AccurateRip returned [2D7AD487] (AR v2)Track 7 cannot be verified as accurate (confidence 2) [391BDCA3], AccurateRip returned [DD8D4C21] (AR v2)Track 8 cannot be verified as accurate (confidence 2) [B9A9E2FD], AccurateRip returned [80B41DA7] (AR v2)Track 9 cannot be verified as accurate (confidence 2) [DBAF08EB], AccurateRip returned [2D511469] (AR v2)Track 10 cannot be verified as accurate (confidence 2) [56A4899E], AccurateRip returned [4C8AB484] (AR v2)Track 11 cannot be verified as accurate (confidence 2) [689E1C3F], AccurateRip returned [A4B8C110] (AR v2)

No tracks could be verified as accurateYou may have a different pressing from the one(s) in the database

End of status report

==== Log checksum 43EE8C6F7051A99A207EE4363854860EE10BDA2F62D0695F647E4AE3BDF15187 ====
Chip (Enuff Z'nuff) - guitars
Jack Marques (Mars Hill) - vocals
Chris Sutherland - bass
Ruben Demello - keys
Chris Longo - drums


Трекер:  [ 24-Сен-2012 09:31 ]

  

Скачать .torrent

Размер .torrent файла 17 KB


Размер: 422 MB
Хэш (hash) релиза: 84ac675dea4bc3e568fed8486811a09bdc894a30

Еще никто не оставлял запись к записи скачать торрент Action - Action - 2007, FLAC . Будь первым!

!Обратная связь