Скачать через торрент музыку Jack Lancaster & Robin Lumley - Marscape - 1976, FLAC бесплатно без регистрации torrent

Если у вас наблюдаются проблемы со скриншотами, переходом по ссылками, скачиванием торрентов - проблемы в блокировщике рекламы AdBlock. #хорошегоДня!


Статистика раздачи
Размер:  220 MB   |    Зарегистрирован:  4 года 10 месяцев   |    .torrent скачан:  19 раз   |   
Раздают:  1  
   
Загрузка...
 
Автор Сообщение

Galfimbul

avatar Galfimbul


Jack Lancaster & Robin Lumley / Marscape

Жанр: Progressive Rock, Art Rock
Страна-производитель диска: US
Год издания: 1993
Издатель (лейбл): Ozone Records
Номер по каталогу: OZ005-2
Страна: UK
Аудиокодек: FLAC (*.flac)
Тип рипа: tracks+.cue
Битрейт аудио: lossless
Продолжительность: 45:52
Источник (релизер): waffles.fm
Наличие сканов в содержимом раздачи: нет
Треклист:
1 Take-Off
2 Sail On Solar Winds
3 Arrival
4 Phobos And Deimos
5 With A Great Feeling Of Love
6 Olympus Mons
7 Homelight
8 Hopper
9 Dust-Storm
10 Blowholes (The Pipes Of Mars)
11 Realisation
12 Release
Exact Audio Copy V0.99 prebeta 4 from 23. January 2008

EAC extraction logfile from 6. November 2008, 23:07

Jack Lancaster & Robin Lumley / Marscape

Used drive : PLEXTOR DVDR PX-750A Adapter: 0 ID: 0

Read mode : SecureUtilize accurate stream : YesDefeat audio cache : YesMake use of C2 pointers : No

Read offset correction : 102Overread into Lead-In and Lead-Out : NoFill up missing offset samples with silence : YesDelete leading and trailing silent blocks : NoNull samples used in CRC calculations : YesUsed interface : Installed external ASPI interfaceGap handling : Appended to previous track

Used output format : User Defined EncoderSelected bitrate : 192 kBit/sQuality : HighAdd ID3 tag : NoCommand line compressor : C:\Program Files\EAC\Exact Audio Copy\FLAC\flac.exeAdditional command line options : -V -8 -T "artist=%a" -T "title=%t" -T "album=%g" -T "date=%y" -T "tracknumber=%n" -T "genre=%m" %s

TOC of the extracted CD

Track | Start | Length | Start sector | End sector --------------------------------------------------------- 1 | 0:00.00 | 3:08.65 | 0 | 14164 2 | 3:08.65 | 2:47.60 | 14165 | 26749 3 | 5:56.50 | 1:52.35 | 26750 | 35184 4 | 7:49.10 | 4:49.62 | 35185 | 56921 5 | 12:38.72 | 2:46.45 | 56922 | 69416 6 | 15:25.42 | 2:13.50 | 69417 | 79441 7 | 17:39.17 | 5:21.65 | 79442 | 103581 8 | 23:01.07 | 3:25.73 | 103582 | 119029 9 | 26:27.05 | 4:21.45 | 119030 | 138649 10 | 30:48.50 | 3:27.42 | 138650 | 154216 11 | 34:16.17 | 3:06.33 | 154217 | 168199 12 | 37:22.50 | 6:12.70 | 168200 | 196169 13 | 43:35.45 | 2:17.12 | 196170 | 206456

Track 1

Filename E:\FLAC\Jack Lancaster & Robin Lumley - Marscape\01 - Take Off (Into Earth Orbit).wav

Pre-gap length 0:00:02.00

Peak level 46.0 % Track quality 99.9 % Test CRC 8D107033 Copy CRC 8D107033 Track not present in AccurateRip database Copy OK

Track 2

Filename E:\FLAC\Jack Lancaster & Robin Lumley - Marscape\02 - Sail on Solar Winds (The Journey).wav

Peak level 61.0 % Track quality 100.0 % Test CRC AF3311F1 Copy CRC AF3311F1 Track not present in AccurateRip database Copy OK

Track 3

Filename E:\FLAC\Jack Lancaster & Robin Lumley - Marscape\03 - Arrival (Into Martian Orbit).wav

Peak level 30.3 % Track quality 100.0 % Test CRC F7116925 Copy CRC F7116925 Track not present in AccurateRip database Copy OK

Track 4

Filename E:\FLAC\Jack Lancaster & Robin Lumley - Marscape\04 - Phobos and Deimos (The Twin Moons of Mars).wav

Peak level 83.4 % Track quality 100.0 % Test CRC 337FC972 Copy CRC 337FC972 Track not present in AccurateRip database Copy OK

Track 5

Filename E:\FLAC\Jack Lancaster & Robin Lumley - Marscape\05 - With a Great Feeling of Love- Inner Warmth and Feelings of Affinity.wav

Peak level 30.6 % Track quality 100.0 % Test CRC 2301E851 Copy CRC 2301E851 Track not present in AccurateRip database Copy OK

Track 6

Filename E:\FLAC\Jack Lancaster & Robin Lumley - Marscape\06 - With a Great Feeling of Love- Marscape- Outer Cold and Icy Silence.wav

Peak level 28.0 % Track quality 100.0 % Test CRC FD87BBEC Copy CRC FD87BBEC Track not present in AccurateRip database Copy OK

Track 7

Filename E:\FLAC\Jack Lancaster & Robin Lumley - Marscape\07 - Olympus Mons.wav

Peak level 100.0 % Track quality 100.0 % Test CRC 138D95A7 Copy CRC 138D95A7 Track not present in AccurateRip database Copy OK

Track 8

Filename E:\FLAC\Jack Lancaster & Robin Lumley - Marscape\08 - Homelight (Reflecting on Distant Earth).wav

Peak level 51.4 % Track quality 100.0 % Test CRC 57D91BBE Copy CRC 57D91BBE Track not present in AccurateRip database Copy OK

Track 9

Filename E:\FLAC\Jack Lancaster & Robin Lumley - Marscape\09 - Hopper (Machine for Negotiating the Rough Martian Terrain).wav

Peak level 60.2 % Track quality 100.0 % Test CRC F264428C Copy CRC F264428C Track not present in AccurateRip database Copy OK

Track 10

Filename E:\FLAC\Jack Lancaster & Robin Lumley - Marscape\10 - Dust Storm.wav

Peak level 54.1 % Track quality 99.9 % Test CRC B078A9C0 Copy CRC B078A9C0 Track not present in AccurateRip database Copy OK

Track 11

Filename E:\FLAC\Jack Lancaster & Robin Lumley - Marscape\11 - Blowholes (The Pipes of Mars).wav

Peak level 31.8 % Track quality 100.0 % Test CRC ECBF31C9 Copy CRC ECBF31C9 Track not present in AccurateRip database Copy OK

Track 12

Filename E:\FLAC\Jack Lancaster & Robin Lumley - Marscape\12 - Realisation.wav

Peak level 70.0 % Track quality 100.0 % Test CRC FD889934 Copy CRC FD889934 Track not present in AccurateRip database Copy OK

Track 13

Filename E:\FLAC\Jack Lancaster & Robin Lumley - Marscape\13 - Release.wav

Peak level 16.1 % Track quality 99.9 % Test CRC E74D2A10 Copy CRC E74D2A10 Track not present in AccurateRip database Copy OK

None of the tracks are present in the AccurateRip database

No errors occurred

End of status report
REM GENRE "Progressive Rock"REM DATE 1976REM DISCID AE0AC00DREM COMMENT "ExactAudioCopy v0.99pb4"PERFORMER "Jack Lancaster & Robin Lumley"TITLE "Marscape"FILE "01 - Take Off (Into Earth Orbit).wav" WAVE TRACK 01 AUDIO TITLE "Take Off (Into Earth Orbit)" PERFORMER "Jack Lancaster & Robin Lumley" INDEX 01 00:00:00FILE "02 - Sail on Solar Winds (The Journey).wav" WAVE TRACK 02 AUDIO TITLE "Sail on Solar Winds (The Journey)" PERFORMER "Jack Lancaster & Robin Lumley" INDEX 01 00:00:00FILE "03 - Arrival (Into Martian Orbit).wav" WAVE TRACK 03 AUDIO TITLE "Arrival (Into Martian Orbit)" PERFORMER "Jack Lancaster & Robin Lumley" INDEX 01 00:00:00FILE "04 - Phobos and Deimos (The Twin Moons of Mars).wav" WAVE TRACK 04 AUDIO TITLE "Phobos and Deimos (The Twin Moons of Mars)" PERFORMER "Jack Lancaster & Robin Lumley" INDEX 01 00:00:00FILE "05 - With a Great Feeling of Love- Inner Warmth and Feelings of Affinity.wav" WAVE TRACK 05 AUDIO TITLE "With a Great Feeling of Love: Inner Warmth and Feelings of Affinity" PERFORMER "Jack Lancaster & Robin Lumley" INDEX 01 00:00:00FILE "06 - With a Great Feeling of Love- Marscape- Outer Cold and Icy Silence.wav" WAVE TRACK 06 AUDIO TITLE "With a Great Feeling of Love: Marscape: Outer Cold and Icy Silence" PERFORMER "Jack Lancaster & Robin Lumley" INDEX 01 00:00:00FILE "07 - Olympus Mons.wav" WAVE TRACK 07 AUDIO TITLE "Olympus Mons" PERFORMER "Jack Lancaster & Robin Lumley" INDEX 01 00:00:00FILE "08 - Homelight (Reflecting on Distant Earth).wav" WAVE TRACK 08 AUDIO TITLE "Homelight (Reflecting on Distant Earth)" PERFORMER "Jack Lancaster & Robin Lumley" INDEX 01 00:00:00FILE "09 - Hopper (Machine for Negotiating the Rough Martian Terrain).wav" WAVE TRACK 09 AUDIO TITLE "Hopper (Machine for Negotiating the Rough Martian Terrain)" PERFORMER "Jack Lancaster & Robin Lumley" INDEX 01 00:00:00FILE "10 - Dust Storm.wav" WAVE TRACK 10 AUDIO TITLE "Dust Storm" PERFORMER "Jack Lancaster & Robin Lumley" INDEX 01 00:00:00FILE "11 - Blowholes (The Pipes of Mars).wav" WAVE TRACK 11 AUDIO TITLE "Blowholes (The Pipes of Mars)" PERFORMER "Jack Lancaster & Robin Lumley" INDEX 01 00:00:00FILE "12 - Realisation.wav" WAVE TRACK 12 AUDIO TITLE "Realisation" PERFORMER "Jack Lancaster & Robin Lumley" INDEX 01 00:00:00FILE "13 - Release.wav" WAVE TRACK 13 AUDIO TITLE "Release" PERFORMER "Jack Lancaster & Robin Lumley" INDEX 01 00:00:00
d:\>d:\aucdtect -d/-m0 d:\zzz\*.wavauCDtect: CD records authenticity detector, version 0.8.2Copyright (c) 2004 Oleg Berngardt. All rights reserved.Copyright (c) 2004 Alexander Djourik. All rights reserved.------------------------------------------------------------Processing file: [01. Take Off (Into Earth Orbit).wav]

------------------------------------------------------------This track looks like CDDA with probability 100%

------------------------------------------------------------Processing file: [02. Sail on Solar Winds (The Journey).wav]

------------------------------------------------------------This track looks like CDDA with probability 100%

------------------------------------------------------------Processing file: [03. Arrival (Into Martian Orbit).wav]

------------------------------------------------------------This track looks like CDDA with probability 100%

------------------------------------------------------------Processing file: [04. Phobos and Deimos (The Twin Moons of Mars).wav]

------------------------------------------------------------This track looks like CDDA with probability 99%

------------------------------------------------------------Processing file: [05. With a Great Feeling of Love- Inner Warmth and Feelings of Affinity.wav]

------------------------------------------------------------This track looks like CDDA with probability 100%

------------------------------------------------------------Processing file: [06. With a Great Feeling of Love- Marscape- Outer Cold and Icy Silence.wav]

------------------------------------------------------------This track looks like CDDA with probability 100%

------------------------------------------------------------Processing file: [07. Olympus Mons.wav]

------------------------------------------------------------This track looks like CDDA with probability 99%

------------------------------------------------------------Processing file: [08. Homelight (Reflecting on Distant Earth).wav]

------------------------------------------------------------This track looks like CDDA with probability 100%

------------------------------------------------------------Processing file: [09. Hopper (Machine for Negotiating the Rough Martian Terrain).wav]

------------------------------------------------------------This track looks like CDDA with probability 100%

------------------------------------------------------------Processing file: [10. Dust Storm.wav]

------------------------------------------------------------This track looks like CDDA with probability 100%

------------------------------------------------------------Processing file: [11. Blowholes (The Pipes of Mars).wav]

------------------------------------------------------------This track looks like CDDA with probability 100%

------------------------------------------------------------Processing file: [12. Realisation.wav]

------------------------------------------------------------This track looks like CDDA with probability 100%

------------------------------------------------------------Processing file: [13. Release.wav]

------------------------------------------------------------This track looks like CDDA with probability 100%

------------------------------------------------------------Final Conclusion:------------------------------------------------------------These tracks looks like CDDA with probability 100%
Acoustic Bass, Bass [Fretless], Percussion [Electronic Sequencer], Gong [Water] – Percy Jones
Drums, Percussion – Philip Collins
Electric Guitar, Acoustic Guitar [6-string, 12-string] – John Goodsall
Koto – Simon Jeffes
Lyricon, Soprano Saxophone, Alto Saxophone, Tenor Saxophone, Flute [Alto, Bamboo, Glass], Violin, Gong [Water], Panpipes – Jack Lancaster
Percussion – Morris Pert
Piano [Acoustic], Electric Piano, Harmonium, Synthesizer, Autoharp, Organ [Hammond] – Robin Lumley
Programmed By [Arp Synthesizer] – Geoff Leach
Voice – Bernie Frost


Трекер:  [ 24-Сен-2012 09:31 ]

  

Скачать .torrent

Размер .torrent файла 19 KB


Размер: 220 MB
Хэш (hash) релиза: 8b8af8aad5eb1676bca08a4500da16338c759712

Еще никто не оставлял запись к записи скачать торрент Jack Lancaster & Robin Lumley - Marscape - 1976, FLAC . Будь первым!

!Обратная связь