Скачать через торрент музыку Hidria Spacefolk - Astronautica - 2012, FLAC бесплатно без регистрации torrent

Если у вас наблюдаются проблемы со скриншотами, переходом по ссылками, скачиванием торрентов - проблемы в блокировщике рекламы AdBlock. #хорошегоДня!


Статистика раздачи
Размер:  293 MB   |    Зарегистрирован:  4 года 10 месяцев   |    .torrent скачан:  33 раза   |   
Раздают:  1  
   
Загрузка...
 
Автор Сообщение

Galfimbul

avatar Galfimbul


Hidria Spacefolk / Astronautica

Жанр: Progressive Rock, Psychedelic, Space Rock
Страна-производитель диска: Finland
Год издания: 2012
Издатель (лейбл): Hidria Records
Номер по каталогу: HDRSF-5
Страна: Finland
Аудиокодек: FLAC (*.flac)
Тип рипа: tracks+.cue
Битрейт аудио: lossless
Продолжительность: 46:01
Источник (релизер): waffles.fm
Наличие сканов в содержимом раздачи: нет
Треклист:
1 Ad Astra
2 Cycloop
3 Badding
4 Endymion
5 Seirenes
CUERipper v2.1.4 Copyright (C) 2008-12 Grigory Chudov

EAC extraction logfile from 19. September 2012, 18:25

Hidria Spacefolk / Astronautica

Used drive : _NEC DVD+-RW ND-3530A Adapter: 1 ID: 0

Read mode : SecureUtilize accurate stream : YesDefeat audio cache : YesMake use of C2 pointers : No

Read offset correction : 48Overread into Lead-In and Lead-Out : NoFill up missing offset samples with silence : YesDelete leading and trailing silent blocks : NoNull samples used in CRC calculations : YesUsed interface : Native Win32 interface for Win NT & 2000Gap handling : Appended to previous track

Used output format : Internal WAV RoutinesSample format : 44.100 Hz; 16 Bit; Stereo

TOC of the extracted CD

Track | Start | Length | Start sector | End sector --------------------------------------------------------- 1 | 0:00.00 | 8:41.49 | 0 | 39123 2 | 8:41.49 | 7:33.54 | 39124 | 73152 3 | 16:15.28 | 12:24.15 | 73153 | 128967 4 | 28:39.43 | 6:05.05 | 128968 | 156347 5 | 34:44.48 | 11:17.26 | 156348 | 207148

Track 1

Filename C:\Documents and Settings\My Documents\My Music\Hidria Spacefolk\2012 - Astronautica\01. Ad Astra.wav

Pre-gap length 0:00:02.00

Peak level 97.2 % Track quality 100.0 % Test CRC 52E2A61C Copy CRC 52E2A61C Track not present in AccurateRip database Copy OK

Track 2

Filename C:\Documents and Settings\My Documents\My Music\Hidria Spacefolk\2012 - Astronautica\02. Cycloop.wav

Peak level 97.1 % Track quality 100.0 % Test CRC B3FB886A Copy CRC B3FB886A Track not present in AccurateRip database Copy OK

Track 3

Filename C:\Documents and Settings\My Documents\My Music\Hidria Spacefolk\2012 - Astronautica\03. Badding.wav

Peak level 98.5 % Track quality 100.0 % Test CRC 82D52923 Copy CRC 82D52923 Track not present in AccurateRip database Copy OK

Track 4

Filename C:\Documents and Settings\My Documents\My Music\Hidria Spacefolk\2012 - Astronautica\04. Endymion.wav

Peak level 96.8 % Track quality 100.0 % Test CRC 9661CEA6 Copy CRC 9661CEA6 Track not present in AccurateRip database Copy OK

Track 5

Filename C:\Documents and Settings\My Documents\My Music\Hidria Spacefolk\2012 - Astronautica\05. Seirenes.wav

Peak level 97.7 % Track quality 100.0 % Test CRC 2412F193 Copy CRC 2412F193 Track not present in AccurateRip database Copy OK

None of the tracks are present in the AccurateRip database

No errors occurred

End of status report
REM ACCURATERIPID 00093a46-002b4ec6-3e0ac905REM DISCID 3E0AC905PERFORMER "Hidria Spacefolk"TITLE "Astronautica"CATALOG 0885014206569REM DATE 2012REM TOTALDISCS 1REM COMMENT "CUERipper v2.1.4 Copyright (C) 2008-12 Grigory Chudov"FILE "01. Ad Astra.flac" WAVE TRACK 01 AUDIO PERFORMER "Hidria Spacefolk" TITLE "Ad Astra" ISRC FIHSF1200001 INDEX 01 00:00:00FILE "02. Cycloop.flac" WAVE TRACK 02 AUDIO PERFORMER "Hidria Spacefolk" TITLE "Cycloop" ISRC FIHSF1200002 INDEX 01 00:00:00FILE "03. Badding.flac" WAVE TRACK 03 AUDIO PERFORMER "Hidria Spacefolk" TITLE "Badding" ISRC FIHSF1200003 INDEX 01 00:00:00FILE "04. Endymion.flac" WAVE TRACK 04 AUDIO PERFORMER "Hidria Spacefolk" TITLE "Endymion" ISRC FIHSF1200004 INDEX 01 00:00:00FILE "05. Seirenes.flac" WAVE TRACK 05 AUDIO PERFORMER "Hidria Spacefolk" TITLE "Seirenes" ISRC FIHSF1200005 INDEX 01 00:00:00
d:\>d:\aucdtect -d/-m0 d:\zzz\*.wavauCDtect: CD records authenticity detector, version 0.8.2Copyright (c) 2004 Oleg Berngardt. All rights reserved.Copyright (c) 2004 Alexander Djourik. All rights reserved.------------------------------------------------------------Processing file: [01. Ad Astra.wav]

------------------------------------------------------------This track looks like CDDA with probability 100%

------------------------------------------------------------Processing file: [02. Cycloop.wav]

------------------------------------------------------------This track looks like CDDA with probability 100%

------------------------------------------------------------Processing file: [03. Badding.wav]

------------------------------------------------------------This track looks like CDDA with probability 100%

------------------------------------------------------------Processing file: [04. Endymion.wav]

------------------------------------------------------------This track looks like CDDA with probability 100%

------------------------------------------------------------Processing file: [05. Seirenes.wav]

------------------------------------------------------------This track looks like CDDA with probability 100%

------------------------------------------------------------Final Conclusion:------------------------------------------------------------These tracks looks like CDDA with probability 100%
- Mikko Happo / Electric Guitar
- Teemu Kilponen / Drums
- Kimmo Dammert / Bass
- Sami Wirkkala / Electric & Midi Guitar, Synths
- Veikko Sutinen / Synths, Keyboards
- Olli Kari / Marimba, Vibrafone


Трекер:  [ 24-Сен-2012 09:31 ]

  

Скачать .torrent

Размер .torrent файла 12 KB


Размер: 293 MB
Хэш (hash) релиза: e70d59ece2ba3ae907e8f4bc2eef9e352f53d95a

Еще никто не оставлял запись к записи скачать торрент Hidria Spacefolk - Astronautica - 2012, FLAC . Будь первым!

!Обратная связь