Скачать через торрент музыку Chrissy Steele - Magnet To Steele - 1991, APE бесплатно без регистрации torrent

Если у вас наблюдаются проблемы со скриншотами, переходом по ссылками, скачиванием торрентов - проблемы в блокировщике рекламы AdBlock. #хорошегоДня!


Статистика раздачи
Размер:  376 MB   |    Зарегистрирован:  4 года 10 месяцев   |    .torrent скачан:  11 раз   |   
Раздают:  1  
   
Загрузка...
 
Автор Сообщение

Galfimbul

avatar Galfimbul


Chrissy Steele / Magnet To Steele

Жанр: Melodic Hard Rock
Страна-производитель диска: USA
Год издания: 1991
Издатель (лейбл): Chrysalis Records
Номер по каталогу: F2 21843
Страна: Canada
Аудиокодек: APE (*.ape)
Тип рипа: image+.cue
Битрейт аудио: lossless
Продолжительность: 52:49.50
Источник (релизер): Собственная коллекция
Наличие сканов в содержимом раздачи: да

Треклист:

01. Love You 'Til It Hurts
02. Armed And Dangerous
03. Move Over
04. Love Don't Last Forever
05. Try Me
06. Two Bodies
07. Murder In The First Degree
08. King Of Hearts
09. Magnet To Steel
10. Two Lips (Don't Make A Kiss)
11. Cry Myself To Sleep
Exact Audio Copy V1.0 beta 3 from 29. August 2011

Отчёт EAC об извлечении, выполненном 21. сентября 2012, 19:32

Chrissy Steele / Magnet To Steele

Дисковод: Optiarc DVD RW AD-7280S Adapter: 1 ID: 0

Режим чтения : ДостоверностьИспользование точного потока : ДаОтключение кэша аудио : ДаИспользование указателей C2 : Нет

Коррекция смещения при чтении : 48Способность читать области Lead-in и Lead-out : НетЗаполнение пропущенных сэмплов тишиной : ДаУдаление блоков с тишиной в начале и конце : НетПри вычислениях CRC использовались нулевые сэмплы : ДаИнтерфейс : Встроенный Win32-интерфейс для Win NT/2000

Выходной формат : Внутренние WAV-операцииФормат сэмплов : 44.100 Гц; 16 бит; стерео

TOC извлечённого CD

Трек | Старт | Длительность | Начальный сектор | Конечный сектор --------------------------------------------------------------------- 1 | 0:00.00 | 5:10.42 | 0 | 23291 2 | 5:10.42 | 4:13.68 | 23292 | 42334 3 | 9:24.35 | 4:33.60 | 42335 | 62869 4 | 13:58.20 | 4:30.20 | 62870 | 83139 5 | 18:28.40 | 4:46.65 | 83140 | 104654 6 | 23:15.30 | 4:43.10 | 104655 | 125889 7 | 27:58.40 | 4:49.02 | 125890 | 147566 8 | 32:47.42 | 5:06.48 | 147567 | 170564 9 | 37:54.15 | 4:23.47 | 170565 | 190336 10 | 42:17.62 | 5:45.35 | 190337 | 216246 11 | 48:03.22 | 4:46.28 | 216247 | 237724

Характеристики диапазона извлечения и сообщения об ошибках

Выбранный диапазон

Имя файла G:\Мои раздачи\Chrissy Steele - 1991 Magnet To Steele\ape\Chrissy Steele - Magnet To Steele.wav

Пиковый уровень 100.0 % Скорость извлечения 4.0 X Качество диапазона 100.0 % CRC копии 8C4F242E Копирование... OK

Ошибок не произошло

AccurateRip: сводка

Трек 1 : извлечено точно (доверие 4) [701EF6C5] (AR v1)Трек 2 : извлечено точно (доверие 4) [1ADF2BF2] (AR v1)Трек 3 : извлечено точно (доверие 4) [34920ED6] (AR v1)Трек 4 : извлечено точно (доверие 4) [3F7E1794] (AR v1)Трек 5 : извлечено точно (доверие 4) [76AD5D15] (AR v1)Трек 6 : извлечено точно (доверие 4) [55D4A87C] (AR v1)Трек 7 : извлечено точно (доверие 4) [3356413D] (AR v1)Трек 8 : извлечено точно (доверие 4) [039E56DA] (AR v1)Трек 9 : извлечено точно (доверие 4) [B96E6001] (AR v1)Трек 10 : извлечено точно (доверие 4) [709BB4F0] (AR v1)Трек 11 : извлечено точно (доверие 4) [85156AEB] (AR v1)

Все треки извлечены точно

Конец отчёта

==== Контрольная сумма отчёта A1925D35338DF538A5519A277C4644DF26F0FB2DEE4FB7F7375B8D5AF6A2E88F ====
В конце 80-х Брайан Маклауд реанимировал свою группу под новой вывеской - Chrissy Steele, названной в честь новой вокалистки. Ее вокал практически один в один повторяет Дарби Миллз. Потяжелее чем предыдущие записи Хэдпинс, отдает американским хардом, но фирменное звучание Брайана Маклауда остается, собственно он и был главной движущей силой коллектива.
Band:
Chrissy Steele - vocals
Brian "Too Loud" MacLeod - guitar, programming and background vocals
Pat Stewart - drums

Additional Musicians:
Tim Feehan - programming
Matteo Caratozzolo - programming
Mark Slaughter - background vocals (4)
Dave Allen - background vocals (3)
Scott Adair - background vocals (3)

Production:
Produced and engineered by Brian "Too Loud" MacLeod.


Трекер:  [ 24-Сен-2012 09:31 ]

  

Скачать .torrent

Размер .torrent файла 15 KB


Размер: 376 MB
Хэш (hash) релиза: bb888897d734483b41f01dbafafbc1ea456edef4

Еще никто не оставлял запись к записи скачать торрент Chrissy Steele - Magnet To Steele - 1991, APE . Будь первым!

!Обратная связь