Скачать через торрент музыку Mark Knopfler - Privateering - Deluxe Edition, CD3 - Live - 2012, WavPack бесплатно без регистрации torrent

Если у вас наблюдаются проблемы со скриншотами, переходом по ссылками, скачиванием торрентов - проблемы в блокировщике рекламы AdBlock. #хорошегоДня!


Статистика раздачи
Размер:  230 MB   |    Зарегистрирован:  4 года 10 месяцев   |    .torrent скачан:  58 раз   |   
Раздают:  1  
   
Загрузка...
 
Автор Сообщение

Galfimbul

avatar Galfimbul


Mark Knopfler / Privateering - Deluxe Edition, CD3 - Live

Жанр: Rock, Blues, Country
Страна-производитель диска: UK
Год издания: 2012
Издатель (лейбл): Mercury Records Ltd (London)
Страна: UK
Аудиокодек: WavPack (*.wv)
Тип рипа: image+.cue
Битрейт аудио: lossless
Продолжительность: 28:51
Источник (релизер): собственный диск
Наличие сканов в содержимом раздачи: да (обложка + сd)
Треклист:
1. Why Aye Man (Live From Music Bank London/2011)
2. Cleaning My Gun (Live From Music Bank London/2011)
3. Corned Beef City (Live From Music Bank London/2011)
4. Sailing To Philadelphia (Live From Music Bank London/2011)
5. Hill Farmer's Blues (Live From Music Bank London/2011)
Exact Audio Copy V0.99 prebeta 5 from 4. May 2009

EAC extraction logfile from 22. September 2012, 1:56

Mark Knopfler / Privateering - Deluxe Edition (CD3)

Used drive : Optiarc DVD RW AD-7241S Adapter: 1 ID: 0

Read mode : SecureUtilize accurate stream : YesDefeat audio cache : YesMake use of C2 pointers : No

Read offset correction : 48Overread into Lead-In and Lead-Out : NoFill up missing offset samples with silence : YesDelete leading and trailing silent blocks : NoNull samples used in CRC calculations : YesUsed interface : Installed external ASPI interface

Used output format : User Defined EncoderSelected bitrate : 896 kBit/sQuality : HighAdd ID3 tag : NoCommand line compressor : D:\temp\audio\WV\wavpack.exeAdditional command line options : -w "Artist=%a" -w "Title=%t" -w "Album=%g" -w "Year=%y" -w "Track=%n" -w "Genre=%m" -h %s %d

TOC of the extracted CD

Track | Start | Length | Start sector | End sector --------------------------------------------------------- 1 | 0:00.00 | 7:12.29 | 0 | 32428 2 | 7:12.29 | 4:43.35 | 32429 | 53688 3 | 11:55.64 | 4:25.74 | 53689 | 73637 4 | 16:21.63 | 7:11.65 | 73638 | 106027 5 | 23:33.53 | 5:18.11 | 106028 | 129888

Range status and errors

Selected range

Filename D:\downloads\torrents\- RAZDACHA\Mark Knopfler - Privateering - Deluxe Edition (CD3)\Mark Knopfler - Privateering - Deluxe Edition (CD3).wav

Peak level 99.6 % Range quality 100.0 % Test CRC 99FC6CB7 Copy CRC 99FC6CB7 Copy OK

No errors occurred

AccurateRip summary

Track 1 not present in databaseTrack 2 not present in databaseTrack 3 not present in databaseTrack 4 not present in databaseTrack 5 not present in database

None of the tracks are present in the AccurateRip database

End of status report


Трекер:  [ 24-Сен-2012 09:31 ]

  

Скачать .torrent

Размер .torrent файла 18 KB


Размер: 230 MB
Хэш (hash) релиза: 914ab85a22e240cac8e9a1739c394e8f75f57e50

Еще никто не оставлял запись к записи скачать торрент Mark Knopfler - Privateering - Deluxe Edition, CD3 - Live - 2012, WavPack . Будь первым!

!Обратная связь