Скачать через торрент музыку Redline - Ignition бесплатно без регистрации torrent

Если у вас наблюдаются проблемы со скриншотами, переходом по ссылками, скачиванием торрентов - проблемы в блокировщике рекламы AdBlock. #хорошегоДня!


Статистика раздачи
Размер:  305 MB   |    Зарегистрирован:  5 лет 1 месяц   |    .torrent скачан:  12 раз   |   
Раздают:  1  
   
Загрузка...
 
Автор Сообщение

Galfimbul

avatar Galfimbul


Redline ~ Ignition (2007)
Жанр: Hard Rock
Страна-производитель диска: England
Год издания: 2007
Издатель (лейбл): Antarctic Records
Номер по каталогу: RED70466
Страна: England
Аудиокодек: APE (*.ape)
Тип рипа: image+.cue
Битрейт аудио: lossless
Продолжительность: 42:01
Источник (релизер): Собственный рип с оригинального диска
Наличие сканов в содержимом раздачи: да
Треклист:
1.King Of The Mountain 3:53
2.No Limits 3:54
3.Twisting The Knife 4:46
4.Cold Silence 4:44
5.High Price To Pay 3:52
6.Some Kinda' Mean 4:22
7.Straight Between The Eyes 4:17
8.Coast To Coast 4:02
9.Heaven's Gate 4:42
10.Ride 3:28
По многочисленным просьбам форумчан дарю Вам дебютный альбом 2007 года выпуска, который, к слову сказать, долго искал по всем интернет-магазинам! Жесткий, драйвовый материал проходит через весь альбом с гитарными риффами, с хорошим рок-вокалом и делают альбом привлекательным для любителей настоящего хард-рока! Всем приятного прослушивания!!!
Exact Audio Copy V0.99 prebeta 5 from 4. May 2009

EAC extraction logfile from 8. September 2012, 14:19

Redline / Ignition

Used drive : HL-DT-STDVDRAM GH24LS70 Adapter: 1 ID: 1

Read mode : SecureUtilize accurate stream : YesDefeat audio cache : YesMake use of C2 pointers : No

Read offset correction : 667Overread into Lead-In and Lead-Out : NoFill up missing offset samples with silence : YesDelete leading and trailing silent blocks : NoNull samples used in CRC calculations : YesUsed interface : Installed external ASPI interface

Used output format : Internal WAV RoutinesSample format : 44.100 Hz; 16 Bit; Stereo

TOC of the extracted CD

Track | Start | Length | Start sector | End sector --------------------------------------------------------- 1 | 0:00.00 | 3:53.23 | 0 | 17497 2 | 3:53.23 | 3:53.56 | 17498 | 35028 3 | 7:47.04 | 4:46.35 | 35029 | 56513 4 | 12:33.39 | 4:43.71 | 56514 | 77809 5 | 17:17.35 | 3:51.71 | 77810 | 95205 6 | 21:09.31 | 4:22.17 | 95206 | 114872 7 | 25:31.48 | 4:16.69 | 114873 | 134141 8 | 29:48.42 | 4:01.71 | 134142 | 152287 9 | 33:50.38 | 4:42.42 | 152288 | 173479 10 | 38:33.05 | 3:28.26 | 173480 | 189105

Range status and errors

Selected range

Filename E:\Redline - Ignition (2007)\Ignition.wav

Peak level 99.9 % Range quality 100.0 % Copy CRC 5AF96DCE Copy OK

No errors occurred

End of status report
Liam Doherty (Vocals)
A.D. (Guitars)
Martin Orum (Bass)
Mark Biddiscombe (Drums)


Трекер:  [ 24-Сен-2012 09:29 ]

  

Скачать .torrent

Размер .torrent файла 12 KB


Размер: 305 MB
Хэш (hash) релиза: b1fddf7f607c3e3725e01b2b2b5dee45ba15e4ec

Еще никто не оставлял запись к записи скачать торрент Redline - Ignition . Будь первым!

!Обратная связь