Скачать через торрент музыку Nexus - Live at Nearfest 2000 - 2002, FLAC бесплатно без регистрации torrent

Если у вас наблюдаются проблемы со скриншотами, переходом по ссылками, скачиванием торрентов - проблемы в блокировщике рекламы AdBlock. #хорошегоДня!


Статистика раздачи
Размер:  449 MB   |    Зарегистрирован:  4 года 10 месяцев   |    .torrent скачан:  11 раз   |   
Раздают:  1  
   
Загрузка...
 
Автор Сообщение

Galfimbul

avatar Galfimbul


Nexus / Live at Nearfest 2000

Жанр: Symphonic Prog
Страна-производитель диска: Argentina
Год издания: 2002
Издатель (лейбл): Road Runner
Номер по каталогу: PMR xx33
Страна: Argentina
Аудиокодек: FLAC (*.flac)
Тип рипа: image+.cue
Битрейт аудио: lossless
Продолжительность: 68:18
Источник (релизер): оригинальный диск
Наличие сканов в содержимом раздачи: да
Треклист:
1. The Awakening (2:56)
2. Beyond the limit (4:13)
3. Condemned (7:58)
4. The Spiral (3:18)
5. Endless dream (7:03)
6. Keyboard solo (5:51)
7. Metanoia (9:23)
8. Symbols in the sky (13:01)
9. The last ritual / Final condemned (6:36)
10. Age of unreason (7:54)
Exact Audio Copy V0.99 prebeta 3 from 28. July 2007

Отчёт EAC об извлечении, выполненном 20. сентября 2012, 23:19

Nexus / Live at the NEARFest 2000

Дисковод: TSSTcorpCD/DVDW SH-S182M Adapter: 0 ID: 1

Режим чтения : ДостоверностьИспользование точного потока : ДаОтключение кэша аудио : НетИспользование указателей C2 : Нет

Коррекция смещения при чтении : 6Способность читать области Lead-in и Lead-out : НетЗаполнение пропущенных сэмплов тишиной : ДаУдаление блоков с тишиной в начале и конце : НетПри вычислениях CRC использовались нулевые сэмплы : НетИнтерфейс : Установленный внешний ASPI-интерфейс

Выходной формат : Внутренние WAV-операцииФормат сэмплов : 44.100 Гц; 16 бит; стерео

TOC извлечённого CD

Трек | Старт | Длительность | Начальный сектор | Конечный сектор --------------------------------------------------------------------- 1 | 0:00.00 | 2:56.70 | 0 | 13269 2 | 2:56.70 | 4:13.50 | 13270 | 32294 3 | 7:10.45 | 7:58.50 | 32295 | 68194 4 | 15:09.20 | 3:18.20 | 68195 | 83064 5 | 18:27.40 | 7:03.47 | 83065 | 114836 6 | 25:31.12 | 5:51.50 | 114837 | 141211 7 | 31:22.62 | 9:23.65 | 141212 | 183501 8 | 40:46.52 | 13:01.63 | 183502 | 242139 9 | 53:48.40 | 6:36.60 | 242140 | 271899 10 | 60:25.25 | 7:52.37 | 271900 | 307336

Характеристики диапазона извлечения и сообщения об ошибках

Выбранный диапазон

Имя файла E:\CD Torrent\Nexus - Live at NEARFest 2000\Nexus - Live at the NEARFest 2000.wav

Пиковый уровень 100.0 % Качество диапазона 99.9 % CRC копии 85464D4A Копирование... OK

Ошибок не произошло

AccurateRip: сводка

Трек 1 нет в базе данныхТрек 2 нет в базе данныхТрек 3 нет в базе данныхТрек 4 нет в базе данныхТрек 5 нет в базе данныхТрек 6 нет в базе данныхТрек 7 нет в базе данныхТрек 8 нет в базе данныхТрек 9 нет в базе данныхТрек 10 нет в базе данных

Ни одного трека нет в базе AccurateRip

Конец отчёта
- Lalo Huber / keyboards, backing vocals
- Carlos Lucena / guitars, backing vocals
- Luis Nakamura / drums, percussion
- Daniel Ianniruberto / bass, backing vocals
- Mariela Gonzalez / lead vocals


Трекер:  [ 24-Сен-2012 09:21 ]

  

Скачать .torrent

Размер .torrent файла 18 KB


Размер: 449 MB
Хэш (hash) релиза: 884a00216df9f5e9ce419a879d11938c1daaeec2

Еще никто не оставлял запись к записи скачать торрент Nexus - Live at Nearfest 2000 - 2002, FLAC . Будь первым!

!Обратная связь