Скачать через торрент музыку Yoke Shire - A Seer in the Midst - 2002, FLAC бесплатно без регистрации torrent

Если у вас наблюдаются проблемы со скриншотами, переходом по ссылками, скачиванием торрентов - проблемы в блокировщике рекламы AdBlock. #хорошегоДня!


Статистика раздачи
Размер:  316 MB   |    Зарегистрирован:  4 года 10 месяцев   |    .torrent скачан:  16 раз   |   
Раздают:  1  
   
Загрузка...
 
Автор Сообщение

Galfimbul

avatar Galfimbul


Yoke Shire / A Seer in the Midst

Жанр: Prog Folk
Страна-производитель диска: USA
Год издания: 2002
Издатель (лейбл): Zygo Records
Номер по каталогу: 30003-2
Страна: USA
Аудиокодек: FLAC (*.flac)
Тип рипа: image+.cue
Битрейт аудио: lossless
Продолжительность: 58:04
Источник (релизер): собственный рип оригинального диска
Наличие сканов в содержимом раздачи: да
Треклист:
1. Mesmerize (4:56)
2. Ghan Buri Ghan (2:51)
3. Maiden Voyage [Live] (5:44)
4. The Brook, the Mirror and the Maiden [Live] (20:01)
5. Return Voyage [Live] (2:51)
6. 24 Hours Past (5:29)
7. Mystical Mistress (4:53)
8. Dogfight (1:48)
9. A Seer in the Midst (9:15)
Exact Audio Copy V0.99 prebeta 3 from 28. July 2007

Отчёт EAC об извлечении, выполненном 21. сентября 2012, 14:13

Yoke Shire / A Seer in the midst

Дисковод: TSSTcorpCD/DVDW SH-S182M Adapter: 0 ID: 1

Режим чтения : ДостоверностьИспользование точного потока : ДаОтключение кэша аудио : НетИспользование указателей C2 : Нет

Коррекция смещения при чтении : 6Способность читать области Lead-in и Lead-out : НетЗаполнение пропущенных сэмплов тишиной : ДаУдаление блоков с тишиной в начале и конце : НетПри вычислениях CRC использовались нулевые сэмплы : НетИнтерфейс : Установленный внешний ASPI-интерфейс

Выходной формат : Внутренние WAV-операцииФормат сэмплов : 44.100 Гц; 16 бит; стерео

TOC извлечённого CD

Трек | Старт | Длительность | Начальный сектор | Конечный сектор --------------------------------------------------------------------- 1 | 0:00.00 | 4:57.36 | 0 | 22310 2 | 4:57.36 | 2:52.26 | 22311 | 35236 3 | 7:49.62 | 5:44.23 | 35237 | 61059 4 | 13:34.10 | 20:00.68 | 61060 | 151127 5 | 33:35.03 | 2:55.11 | 151128 | 164263 6 | 36:30.14 | 5:32.38 | 164264 | 189201 7 | 42:02.52 | 4:53.56 | 189202 | 211232 8 | 46:56.33 | 1:50.47 | 211233 | 219529 9 | 48:47.05 | 9:16.22 | 219530 | 261251

Характеристики диапазона извлечения и сообщения об ошибках

Выбранный диапазон

Имя файла E:\CD Torrent\Yoke Shire - A Seer in the Midst 2002\Yoke Shire - A Seer in the midst.wav

Пиковый уровень 100.0 % Качество диапазона 99.9 % CRC копии E476B4C1 Копирование... OK

Ошибок не произошло

AccurateRip: сводка

Трек 1 точность не определена (достоверность 1) [8345B1E7], AccurateRip вернул [39616DD2]Трек 2 точность не определена (достоверность 1) [E9167C35], AccurateRip вернул [05CE78A6]Трек 3 точность не определена (достоверность 1) [2EEDEEAB], AccurateRip вернул [41B23BD5]Трек 4 точность не определена (достоверность 1) [168EA19F], AccurateRip вернул [71A34A21]Трек 5 точность не определена (достоверность 1) [47AAFE13], AccurateRip вернул [F1EC9B48]Трек 6 точность не определена (достоверность 1) [6E3A8757], AccurateRip вернул [B4DED99D]Трек 7 точность не определена (достоверность 1) [95A303F0], AccurateRip вернул [72D2A7FC]Трек 8 точность не определена (достоверность 1) [8B850581], AccurateRip вернул [C0E1D413]Трек 9 точность не определена (достоверность 1) [6000D568], AccurateRip вернул [2BBA20A8]

Ни один трек не прошёл проверки на точностьВ вашей базе может быть иной вариант штамповки диска

Конец отчёта
Доп. информация: Вообще-то это как бы сборник - неизданного ранее и живых версий вещей с первого студийника
Brian Herlihy - guitars , vocals, percussions

Craig Herlihy - bass , guitars ,vocals


Трекер:  [ 24-Сен-2012 09:21 ]

  

Скачать .torrent

Размер .torrent файла 13 KB


Размер: 316 MB
Хэш (hash) релиза: dcbc27ec223ae88abbfa318ae646723bb4e3e186

Еще никто не оставлял запись к записи скачать торрент Yoke Shire - A Seer in the Midst - 2002, FLAC . Будь первым!

!Обратная связь