Скачать через торрент музыку Nic Potter - The Blue Zone - 1990, FLAC бесплатно без регистрации torrent

Если у вас наблюдаются проблемы со скриншотами, переходом по ссылками, скачиванием торрентов - проблемы в блокировщике рекламы AdBlock. #хорошегоДня!


Статистика раздачи
Размер:  185 MB   |    Зарегистрирован:  5 лет 1 месяц   |    .torrent скачан:  5 раз   |   
Раздают:  1  
   
Загрузка...
 
Автор Сообщение

Galfimbul

avatar Galfimbul


Nic Potter / The Blue Zone
Жанр: Progressive rock (VDGG family)
Страна-производитель диска: Germany
Год издания: 1990
Издатель (лейбл): Line Records/Date
Номер по каталогу: DACD 9.00891 O
Страна: UK
Аудиокодек: FLAC (*.flac)
Тип рипа: image+.cue
Битрейт аудио: lossless
Продолжительность: 00:34:00
Источник (релизер): CD
Наличие сканов в содержимом раздачи: пока
Треклист:
1. Ocean Blue
2. A Whiter Shade Of Blue
3. Blue Zone: Part
4. Blue Zone: Part
5. Blue Zone: Part 3 (Gods & Ancestors)
6. Hard As Irony

Exact Audio Copy V1.0 beta 3 from 29. August 2011

Отчёт EAC об извлечении, выполненном 21. сентября 2012, 17:40

Nic Potter / The Blue Zone

Дисковод: HL-DT-STDVDRAM GSA-4167B Adapter: 0 ID: 0

Режим чтения : ДостоверностьКоррекция смещения при чтении : 667Способность читать области Lead-in и Lead-out : НетЗаполнение пропущенных сэмплов тишиной : ДаУдаление блоков с тишиной в начале и конце : НетПри вычислениях CRC использовались нулевые сэмплы : ДаИнтерфейс : Встроенный Win32-интерфейс для Win NT/2000

Выходной формат : Внутренние WAV-операцииФормат сэмплов : 44.100 Гц; 16 бит; стерео

TOC извлечённого CD

Трек | Старт | Длительность | Начальный сектор | Конечный сектор --------------------------------------------------------------------- 1 | 0:00.00 | 6:08.00 | 0 | 27599 2 | 6:08.00 | 3:50.00 | 27600 | 44849 3 | 9:58.00 | 5:44.50 | 44850 | 70699 4 | 15:42.50 | 3:30.25 | 70700 | 86474 5 | 19:13.00 | 11:06.50 | 86475 | 136474 6 | 30:19.50 | 3:40.25 | 136475 | 152999

Характеристики диапазона извлечения и сообщения об ошибках

Выбранный диапазон

Имя файла D:\RIP\Nic Potter - The Blue Zone.wav

Проблемы синхронизации 0:00:00 Проблемы синхронизации 0:03:20

Пиковый уровень 93.7 % Скорость извлечения 6.0 X CRC копии E00339B8 Копирование завершено

Ошибок не произошло

AccurateRip: сводка

Трек 1 : извлечено точно (доверие 2) [062A6D6A] (AR v1)Трек 2 : извлечено точно (доверие 2) [254A8F7B] (AR v1)Трек 3 : извлечено точно (доверие 2) [7E1CB611] (AR v1)Трек 4 : извлечено точно (доверие 2) [863823FF] (AR v1)Трек 5 : извлечено точно (доверие 2) [686A7845] (AR v1)Трек 6 : извлечено точно (доверие 2) [E61E2814] (AR v1)

Все треки извлечены точно

Конец отчёта
REM GENRE "VDGG Family"REM DATE 1990REM DISCID 3B07F806REM COMMENT "ExactAudioCopy v1.0b3"PERFORMER "Nic Potter"TITLE "The Blue Zone"FILE "Nic Potter - The Blue Zone.flac" WAVE TRACK 01 AUDIO TITLE "Oceane Blue" PERFORMER "Nic Potter" INDEX 01 00:00:00 TRACK 02 AUDIO TITLE "A Whiter Shade of Blue" PERFORMER "Nic Potter" INDEX 01 06:08:00 TRACK 03 AUDIO TITLE "Blue Zone_One" PERFORMER "Nic Potter" INDEX 01 09:58:00 TRACK 04 AUDIO TITLE "Blue Zone _Two" PERFORMER "Nic Potter" INDEX 01 15:42:50 TRACK 05 AUDIO TITLE "Blue Zone_Three (Gods And Ancestors)" PERFORMER "Nic Potter" INDEX 01 19:13:00 TRACK 06 AUDIO TITLE "Hard As Irony" PERFORMER "Nic Potter" INDEX 01 30:19:50
-----------------------

DON'T MODIFY THIS FILE

-----------------------

PERFORMER: auCDtect Task Manager, ver. 1.5.1RC6 build 1.5.1.7Copyright (c) 2008-2010 y-soft. All rights reservedhttp://y-soft.org

ANALYZER: auCDtect: CD records authenticity detector, version 0.8.2Copyright (c) 2004 Oleg Berngardt. All rights reserved.Copyright (c) 2004 Alexander Djourik. All rights reserved.

FILE: Nic Potter - The Blue Zone.flac Size: 194315797 Hash: E7172412243287BE6ADB199B337CD460 Accuracy: -m0 Conclusion: CDDA 100% Signature: 5830214A4AC6D0EE2A950FEE9D7609E979C42C94
http://en.wikipedia.org/wiki/Nic_Potter
- нет в ПА о сольной карьере
"Играл" за "клюб" в "сезонах" 1969, 1970, 1973, 1977 и 1978.
Recordered & Mixed at Zomart, The Greenhouse & Terra Incognita Studios, England 1989/1990
Perfomed & Produced by Nic Potter
Rating 3.17 from 10 ratings according to rateyourmusic.com
Nic Potter with:
Peter Hammil - guitar (1)
Duncan Browne - Spanish Guitar (4,5)
Lindsay Copper - basson (5)
Malcolm "Molly" Duncan - Saxophone (6)
Guy Evans - Woodblock Percussion (1)
Stuart Gordon - Violin (5)
Huw Lloyd-Langton - Guitar (3,6)
Catherine Miliken - Oboe (5)
Snowy White - Goldtop Guitar (2)
"Электронный" сольник "МоZарта" - "непостоянного бассуна раннего Генератора Высокого Напряжения"

Трекер:  [ 24-Сен-2012 09:21 ]

  

Скачать .torrent

Размер .torrent файла 15 KB


Размер: 185 MB
Хэш (hash) релиза: eed90d84ff576a38e1745971668541d7131cfe66

Еще никто не оставлял запись к записи скачать торрент Nic Potter - The Blue Zone - 1990, FLAC . Будь первым!

!Обратная связь