Скачать через торрент музыку VA - Various Artists - The Colossus of Rhodes - 2005, FLAC бесплатно без регистрации torrent

Если у вас наблюдаются проблемы со скриншотами, переходом по ссылками, скачиванием торрентов - проблемы в блокировщике рекламы AdBlock. #хорошегоДня!


Статистика раздачи
Размер:  1.01 GB   |    Зарегистрирован:  5 лет 1 месяц   |    .torrent скачан:  5 раз   |   
Раздают:  1  
   
Загрузка...
 
Автор Сообщение

Galfimbul

avatar Galfimbul


Various Artists - The Colossus of Rhodes

Жанр: Progressive rock
Страна-производитель диска: France
Год издания: 2005
Издатель (лейбл): Musea records
Номер по каталогу: FGBG 4525.AR
Аудиокодек: FLAC (*.flac)
Тип рипа: image+.cue
Битрейт аудио: lossless
Продолжительность: 156:25
Источник (релизер): собственный рип оригинального альбома
Наличие сканов в содержимом раздачи: да
Треклист:
1. Un Pensiero e Sempre Libero (LEVIATHAN) (26:34)
2. The Secret Passage (GREENWALL) (27:13)
3. God Of Silence (SINKADUS) (23:14)

1. Come Vento Tornero (MAD CRAYON) (25:05)
2. Lords And Knights (VELVET DESPERADOS) (24:51)
3. A New Dawn (REVELATION) (29:26)
Exact Audio Copy V0.99 prebeta 3 from 28. July 2007

Отчёт EAC об извлечении, выполненном 21. сентября 2012, 14:46

VA / The Colossus of Rhodes

Дисковод: TSSTcorpCD/DVDW SH-S182M Adapter: 0 ID: 1

Режим чтения : Достоверность
Использование точного потока : Да
Отключение кэша аудио : Нет
Использование указателей C2 : Нет

Коррекция смещения при чтении : 6
Способность читать области Lead-in и Lead-out : Нет
Заполнение пропущенных сэмплов тишиной : Да
Удаление блоков с тишиной в начале и конце : Нет
При вычислениях CRC использовались нулевые сэмплы : Нет
Интерфейс : Установленный внешний ASPI-интерфейс

Выходной формат : Внутренние WAV-операции
Формат сэмплов : 44.100 Гц; 16 бит; стерео

TOC извлечённого CD

Трек | Старт | Длительность | Начальный сектор | Конечный сектор
---------------------------------------------------------------------
1 | 0:00.00 | 26:34.00 | 0 | 119549
2 | 26:34.00 | 27:13.00 | 119550 | 242024
3 | 53:47.00 | 23:14.00 | 242025 | 346574

Характеристики диапазона извлечения и сообщения об ошибках

Выбранный диапазон

Имя файла E:\CD Torrent\VA - The Colossus of Rhodes\CD 1\VA - The Colossus of Rhodes.wav

Пиковый уровень 96.6 %
Качество диапазона 99.9 %
CRC копии 071E70AC
Копирование... OK

Ошибок не произошло

AccurateRip: сводка

Трек 1 точное извлечение (доверие 2) [AC0C126A]
Трек 2 точное извлечение (доверие 2) [09FBAD57]
Трек 3 точное извлечение (доверие 2) [CD7D8147]

Все треки извлечены точно

Конец отчёта
Exact Audio Copy V0.99 prebeta 3 from 28. July 2007

Отчёт EAC об извлечении, выполненном 21. сентября 2012, 15:10

Various / The Colossus of Rhodes

Дисковод: TSSTcorpCD/DVDW SH-S182M Adapter: 0 ID: 1

Режим чтения : Достоверность
Использование точного потока : Да
Отключение кэша аудио : Нет
Использование указателей C2 : Нет

Коррекция смещения при чтении : 6
Способность читать области Lead-in и Lead-out : Нет
Заполнение пропущенных сэмплов тишиной : Да
Удаление блоков с тишиной в начале и конце : Нет
При вычислениях CRC использовались нулевые сэмплы : Нет
Интерфейс : Установленный внешний ASPI-интерфейс

Выходной формат : Внутренние WAV-операции
Формат сэмплов : 44.100 Гц; 16 бит; стерео

TOC извлечённого CD

Трек | Старт | Длительность | Начальный сектор | Конечный сектор
---------------------------------------------------------------------
1 | 0:00.00 | 25:05.00 | 0 | 112874
2 | 25:05.00 | 24:51.00 | 112875 | 224699
3 | 49:56.00 | 29:29.00 | 224700 | 357374

Характеристики диапазона извлечения и сообщения об ошибках

Выбранный диапазон

Имя файла E:\CD Torrent\VA - The Colossus of Rhodes\CD 2\Various - The Colossus of Rhodes.wav

Пиковый уровень 96.6 %
Качество диапазона 100.0 %
CRC копии DB466F0A
Копирование... OK

Ошибок не произошло

AccurateRip: сводка

Трек 1 точное извлечение (доверие 2) [8BCD79D7]
Трек 2 точное извлечение (доверие 2) [7675E1A7]
Трек 3 точное извлечение (доверие 2) [C7D5E495]

Все треки извлечены точно

Конец отчёта
На трекере есть подобная раздача - но со статусом сомнительно , потрековая и без сканов - вот и решил исправить ситуацию

Трекер:  [ 24-Сен-2012 09:21 ]

  

Скачать .torrent

Размер .torrent файла 12 KB


Размер: 1.01 GB
Хэш (hash) релиза: 2561f9dbc4c449c12a5182cdaff2bdc3f40f66fb

Еще никто не оставлял запись к записи скачать торрент VA - Various Artists - The Colossus of Rhodes - 2005, FLAC . Будь первым!

!Обратная связь