Скачать через торрент музыку ZZ Top - First Album бесплатно без регистрации torrent

Если у вас наблюдаются проблемы со скриншотами, переходом по ссылками, скачиванием торрентов - проблемы в блокировщике рекламы AdBlock. #хорошегоДня!


Статистика раздачи
Размер:  221 MB   |    Зарегистрирован:  5 лет 1 месяц   |    .torrent скачан:  11 раз   |   
Раздают:  1  
   
Загрузка...
 
Автор Сообщение

Galfimbul

avatar Galfimbul


ZZ Top / First Album (WPCP-3980)

Жанр: Blues Rock
Страна-производитель диска: Japan
Год издания: 1990
Издатель (лейбл): Warner Music Japan
Номер по каталогу: WPCP-3980
Страна: U.S.A.
Аудиокодек: FLAC (*.flac)
Тип рипа: image+.cue
Битрейт аудио: lossless
Продолжительность: 34:15
Источник (релизер): Rip с фирменного CD из собственной коллекции.
Наличие сканов в содержимом раздачи: да
Треклист:
1. (Somebody Else Been) Shaking Your Tree 2:32
2. Brown Sugar 5:22
3. Squank 2:46
4. Goin´ Down To Mexico 3:26
5. Old Man 3:23
6. Neighbor, Neighbor 2:18
7. Certified Blues 3:25
8. Bedroom Thang 4:37
9. Just Got Back From My Baby´s 4:07
10. Backdoor Love Affair 3:20
Exact Audio Copy V1.0 beta 3 from 29. August 2011

Отчёт EAC об извлечении, выполненном 18. сентября 2012, 23:38

ZZ Top / First Album (WPCP-3980)

Дисковод: MATSHITABD-MLT UJ-210S Adapter: 0 ID: 0

Режим чтения : ДостоверностьИспользование точного потока : ДаОтключение кэша аудио : ДаИспользование указателей C2 : Нет

Коррекция смещения при чтении : 102Способность читать области Lead-in и Lead-out : НетЗаполнение пропущенных сэмплов тишиной : ДаУдаление блоков с тишиной в начале и конце : НетПри вычислениях CRC использовались нулевые сэмплы : ДаИнтерфейс : Встроенный Win32-интерфейс для Win NT/2000

Выходной формат : Внутренние WAV-операцииФормат сэмплов : 44.100 Гц; 16 бит; стерео

TOC извлечённого CD

Трек | Старт | Длительность | Начальный сектор | Конечный сектор --------------------------------------------------------------------- 1 | 0:00.00 | 2:29.62 | 0 | 11236 2 | 2:29.62 | 5:22.45 | 11237 | 35431 3 | 7:52.32 | 2:49.13 | 35432 | 48119 4 | 10:41.45 | 3:23.20 | 48120 | 63364 5 | 14:04.65 | 3:32.25 | 63365 | 79289 6 | 17:37.15 | 2:19.50 | 79290 | 89764 7 | 19:56.65 | 3:28.02 | 89765 | 105366 8 | 23:24.67 | 3:53.28 | 105367 | 122869 9 | 27:18.20 | 4:14.40 | 122870 | 141959 10 | 31:32.60 | 2:43.40 | 141960 | 154224

Характеристики диапазона извлечения и сообщения об ошибках

Выбранный диапазон

Имя файла H:\Temp\ZZ Top - First Album (WPCP-3980)\ZZ Top - First Album (WPCP-3980).wav

Пиковый уровень 100.0 % Скорость извлечения 3.5 X Качество диапазона 100.0 % CRC теста 7ACBE586 CRC копии 7ACBE586 Копирование... OK

Ошибок не произошло

AccurateRip: сводка

Трек 1 : извлечено точно (доверие 1) [3FD36E63] (AR v1)Трек 2 : извлечено точно (доверие 1) [33FD2216] (AR v1)Трек 3 : извлечено точно (доверие 1) [E3F0B23B] (AR v1)Трек 4 : извлечено точно (доверие 1) [1857824B] (AR v1)Трек 5 : извлечено точно (доверие 1) [A3EA745B] (AR v1)Трек 6 : извлечено точно (доверие 1) [F48DA7B5] (AR v1)Трек 7 : извлечено точно (доверие 1) [441A7746] (AR v1)Трек 8 : извлечено точно (доверие 1) [974346DC] (AR v1)Трек 9 : извлечено точно (доверие 1) [265D385D] (AR v1)Трек 10 : извлечено точно (доверие 1) [96846A83] (AR v1)

Все треки извлечены точно

Конец отчёта

==== Контрольная сумма отчёта 5B483EEE29D60C7569E72B7927DFAB0D6B6A1B31B58290A93AE3EACD99F8F8C3 ====
ZZ Top:

Billy Gibons - lead guitar,vocals
Dusty Hill - bass,vocals
Rube Beard - drums


Трекер:  [ 24-Сен-2012 09:21 ]

  

Скачать .torrent

Размер .torrent файла 18 KB


Размер: 221 MB
Хэш (hash) релиза: a304ba73325969930a27f85704f41cadc03ddd63

Еще никто не оставлял запись к записи скачать торрент ZZ Top - First Album . Будь первым!

!Обратная связь