Скачать через торрент музыку Silent Rage - Dont Touch Me There бесплатно без регистрации torrent

Если у вас наблюдаются проблемы со скриншотами, переходом по ссылками, скачиванием торрентов - проблемы в блокировщике рекламы AdBlock. #хорошегоДня!


Статистика раздачи
Размер:  309 MB   |    Зарегистрирован:  4 года 10 месяцев   |    .torrent скачан:  11 раз   |   
Раздают:  1  
   
Загрузка...
 
Автор Сообщение

Galfimbul

avatar Galfimbul


Silent Rage / Don't Touch Me There (1st press R32P-1209, Japan)

Жанр: Hard Rock
Страна-производитель диска: Japan
Год издания: 1989
Издатель (лейбл): BMG Victor Inc.
Номер по каталогу: R32P-1209
Страна: USA, Los Angeles, California, Un
Аудиокодек: APE (*.ape)
Тип рипа: image+.cue
Битрейт аудио: lossless
Продолжительность: 40:54.62
Источник (релизер): Собственная коллекция
Наличие сканов в содержимом раздачи: да

Треклист:

01 Runnin' On Love
02 I Wanna Feel It Again
03 Tonight You're Mine
04 Rebel With A Cause
05 Touch Me
06 Tear Up The Night
07 Shake Me Up
08 Don't Touch Me There
09 Can't Get Her Out Of My Head (Electric Light Orchestra cover)
11 All Night Long
12 I'm On Fire
Exact Audio Copy V1.0 beta 3 from 29. August 2011

Отчёт EAC об извлечении, выполненном 21. сентября 2012, 20:54

Silent Rage / Don't Touch Me There

Дисковод: Optiarc DVD RW AD-7280S Adapter: 1 ID: 0

Режим чтения : ДостоверностьИспользование точного потока : ДаОтключение кэша аудио : ДаИспользование указателей C2 : Нет

Коррекция смещения при чтении : 48Способность читать области Lead-in и Lead-out : НетЗаполнение пропущенных сэмплов тишиной : ДаУдаление блоков с тишиной в начале и конце : НетПри вычислениях CRC использовались нулевые сэмплы : ДаИнтерфейс : Встроенный Win32-интерфейс для Win NT/2000

Выходной формат : Внутренние WAV-операцииФормат сэмплов : 44.100 Гц; 16 бит; стерео

TOC извлечённого CD

Трек | Старт | Длительность | Начальный сектор | Конечный сектор --------------------------------------------------------------------- 1 | 0:00.37 | 3:25.43 | 37 | 15454 2 | 3:26.05 | 3:37.37 | 15455 | 31766 3 | 7:03.42 | 3:39.68 | 31767 | 48259 4 | 10:43.35 | 3:32.07 | 48260 | 64166 5 | 14:15.42 | 3:52.50 | 64167 | 81616 6 | 18:08.17 | 3:22.43 | 81617 | 96809 7 | 21:30.60 | 4:31.70 | 96810 | 117204 8 | 26:02.55 | 3:38.35 | 117205 | 133589 9 | 29:41.15 | 3:49.07 | 133590 | 150771 10 | 33:30.22 | 3:52.15 | 150772 | 168186 11 | 37:22.37 | 3:32.25 | 168187 | 184111

Характеристики диапазона извлечения и сообщения об ошибках

Выбранный диапазон

Имя файла G:\Мои раздачи\Silent Rage - Don't Touch Me There (R32P-1209)\ape\Silent Rage - Don't Touch Me There.wav

Пиковый уровень 98.5 % Скорость извлечения 3.9 X Качество диапазона 99.9 % CRC теста 9F05E397 CRC копии 9F05E397 Копирование... OK

Ошибок не произошло

AccurateRip: сводка

Трек 1 отсутствует в базе данныхТрек 2 отсутствует в базе данныхТрек 3 отсутствует в базе данныхТрек 4 отсутствует в базе данныхТрек 5 отсутствует в базе данныхТрек 6 отсутствует в базе данныхТрек 7 отсутствует в базе данныхТрек 8 отсутствует в базе данныхТрек 9 отсутствует в базе данныхТрек 10 отсутствует в базе данныхТрек 11 отсутствует в базе данных

Ни одного трека нет в базе AccurateRip

Конец отчёта

==== Контрольная сумма отчёта 17249ADC3759FE6D79FBAD7B83D761EF1AE94EDAF9090E77F1280FFE0A4FBBFD ====
E.J. Curcio - bass, b/vocals
Jesse Damon - lead guitar, lead vocals
Mark Hawkins - synthesizers, guitars, b/vocals
Brian James - Drums


Трекер:  [ 24-Сен-2012 09:21 ]

  

Скачать .torrent

Размер .torrent файла 13 KB


Размер: 309 MB
Хэш (hash) релиза: c746122822c606fef7221afd746745f198c7bbc3

Еще никто не оставлял запись к записи скачать торрент Silent Rage - Dont Touch Me There . Будь первым!

!Обратная связь