Скачать через торрент музыку Ben Folds Five - The Sound of the Life of the Mind - 2012, бесплатно без регистрации torrent

Если у вас наблюдаются проблемы со скриншотами, переходом по ссылками, скачиванием торрентов - проблемы в блокировщике рекламы AdBlock. #хорошегоДня!


Статистика раздачи
Размер:  284 MB   |    Зарегистрирован:  4 года 10 месяцев   |    .torrent скачан:  5 раз   |   
Раздают:  1  
   
Загрузка...
 
Автор Сообщение

Galfimbul

avatar Galfimbul


Ben Folds Five / The Sound of the Life of the Mind

Жанр: Alternative Rock / Power Pop
Страна-производитель диска: US
Год издания: 2012
Издатель (лейбл): IMA Vee Pee Records / Sony Music
Номер по каталогу: 88725464102
Страна: US (North Carolina)

Аудиокодек: FLAC (*.flac)
Тип рипа: tracks+.cue
Битрейт аудио: lossless

Продолжительность: 44:26

Источник (релизер): What.cd (by tartaruga)
Наличие сканов в содержимом раздачи: нет

Треклист:
01. Erase Me (5:15)
03. Michael Praytor, Five Years Later (4:32)
03. Sky High (4:43)
04. The Sound Of The Life Of The Mind (4:13)
05. On Being Frank (4:33)
06. Draw A Crowd (4:14)
07. Do It Anyway (4:22)
08. Hold That Thought (4:14)
09. Away When You Were Here (3:31)
10. Thank You For Breaking My Heart (4:50)
X Lossless Decoder version 20120908 (141.1)

XLD extraction logfile from 2012-09-15 14:11:21 +0200

Ben Folds Five / The Sound Of The Life Of The Mind

Used drive : slimtype eTDU108 1 (revision SL47)

Ripper mode : XLD Secure RipperDisable audio cache : OK for the drive with a cache less than 1375KiBMake use of C2 pointers : NORead offset correction : 6Max retry count : 100Gap status : Analyzed, Appended (except HTOA)

TOC of the extracted CD Track | Start | Length | Start sector | End sector --------------------------------------------------------- 1 | 00:00:00 | 05:15:48 | 0 | 23672 2 | 05:15:48 | 04:32:61 | 23673 | 44133 3 | 09:48:34 | 04:42:60 | 44134 | 65343 4 | 14:31:19 | 04:13:20 | 65344 | 84338 5 | 18:44:39 | 04:33:71 | 84339 | 104884 6 | 23:18:35 | 04:14:53 | 104885 | 123987 7 | 27:33:13 | 04:22:71 | 123988 | 143708 8 | 31:56:09 | 04:14:38 | 143709 | 162796 9 | 36:10:47 | 03:31:56 | 162797 | 178677 10 | 39:42:28 | 04:50:45 | 178678 | 200472

AccurateRip Summary Disc not found in AccurateRip DB.

All Tracks Album gain : -8.07 dB Peak : 1.000000 Statistics Read error : 0 Jitter error (maybe fixed) : 0 Retry sector count : 0 Damaged sector count : 0

Track 01 Filename : /Users/Shared/rips/Ben Folds Five - The Sound Of The Life Of The Mind (2012) [FLAC]/01 - Erase Me.flac /Users/Shared/rips/Ben Folds Five - The Sound Of The Life Of The Mind (2012) [MP3 320]/01 - Erase Me.mp3 /Users/Shared/rips/Ben Folds Five - The Sound Of The Life Of The Mind (2012) [MP3 V0]/01 - Erase Me.mp3 Pre-gap length : 00:02:00

Track gain : -8.14 dB Peak : 1.000000 CRC32 hash (test run) : B0FB74F6 CRC32 hash : B0FB74F6 CRC32 hash (skip zero) : 4854C736 AccurateRip v1 signature : 3D176B80 AccurateRip v2 signature : D4C9162E ->Track not present in AccurateRip database. Statistics Read error : 0 Jitter error (maybe fixed) : 0 Retry sector count : 0 Damaged sector count : 0

Track 02 Filename : /Users/Shared/rips/Ben Folds Five - The Sound Of The Life Of The Mind (2012) [FLAC]/02 - Michael Praytor, Five Years Later.flac /Users/Shared/rips/Ben Folds Five - The Sound Of The Life Of The Mind (2012) [MP3 320]/02 - Michael Praytor, Five Years Later.mp3 /Users/Shared/rips/Ben Folds Five - The Sound Of The Life Of The Mind (2012) [MP3 V0]/02 - Michael Praytor, Five Years Later.mp3

Track gain : -8.34 dB Peak : 1.000000 CRC32 hash (test run) : 45B4A0D7 CRC32 hash : 45B4A0D7 CRC32 hash (skip zero) : 7375C8DE AccurateRip v1 signature : 1303E9E1 AccurateRip v2 signature : 2C3E9E1B ->Track not present in AccurateRip database. Statistics Read error : 0 Jitter error (maybe fixed) : 0 Retry sector count : 0 Damaged sector count : 0

Track 03 Filename : /Users/Shared/rips/Ben Folds Five - The Sound Of The Life Of The Mind (2012) [FLAC]/03 - Sky High.flac /Users/Shared/rips/Ben Folds Five - The Sound Of The Life Of The Mind (2012) [MP3 320]/03 - Sky High.mp3 /Users/Shared/rips/Ben Folds Five - The Sound Of The Life Of The Mind (2012) [MP3 V0]/03 - Sky High.mp3

Track gain : -4.15 dB Peak : 0.936615 CRC32 hash (test run) : DE4C4570 CRC32 hash : DE4C4570 CRC32 hash (skip zero) : 92B94CCF AccurateRip v1 signature : 6036E969 AccurateRip v2 signature : CAD8FA93 ->Track not present in AccurateRip database. Statistics Read error : 0 Jitter error (maybe fixed) : 0 Retry sector count : 0 Damaged sector count : 0

Track 04 Filename : /Users/Shared/rips/Ben Folds Five - The Sound Of The Life Of The Mind (2012) [FLAC]/04 - The Sound Of The Life Of The Mind.flac /Users/Shared/rips/Ben Folds Five - The Sound Of The Life Of The Mind (2012) [MP3 320]/04 - The Sound Of The Life Of The Mind.mp3 /Users/Shared/rips/Ben Folds Five - The Sound Of The Life Of The Mind (2012) [MP3 V0]/04 - The Sound Of The Life Of The Mind.mp3

Track gain : -9.16 dB Peak : 1.000000 CRC32 hash (test run) : 7330E9E4 CRC32 hash : 7330E9E4 CRC32 hash (skip zero) : E6ECE951 AccurateRip v1 signature : 2B4C416F AccurateRip v2 signature : 959CEC67 ->Track not present in AccurateRip database. Statistics Read error : 0 Jitter error (maybe fixed) : 0 Retry sector count : 0 Damaged sector count : 0

Track 05 Filename : /Users/Shared/rips/Ben Folds Five - The Sound Of The Life Of The Mind (2012) [FLAC]/05 - On Being Frank.flac /Users/Shared/rips/Ben Folds Five - The Sound Of The Life Of The Mind (2012) [MP3 320]/05 - On Being Frank.mp3 /Users/Shared/rips/Ben Folds Five - The Sound Of The Life Of The Mind (2012) [MP3 V0]/05 - On Being Frank.mp3 Pre-gap length : 00:02:50

Track gain : -7.69 dB Peak : 1.000000 CRC32 hash (test run) : A4C5F7BE CRC32 hash : A4C5F7BE CRC32 hash (skip zero) : 5B460C05 AccurateRip v1 signature : 8BB6806C AccurateRip v2 signature : 1248E879 ->Track not present in AccurateRip database. Statistics Read error : 0 Jitter error (maybe fixed) : 0 Retry sector count : 0 Damaged sector count : 0

Track 06 Filename : /Users/Shared/rips/Ben Folds Five - The Sound Of The Life Of The Mind (2012) [FLAC]/06 - Draw A Crowd.flac /Users/Shared/rips/Ben Folds Five - The Sound Of The Life Of The Mind (2012) [MP3 320]/06 - Draw A Crowd.mp3 /Users/Shared/rips/Ben Folds Five - The Sound Of The Life Of The Mind (2012) [MP3 V0]/06 - Draw A Crowd.mp3 Pre-gap length : 00:00:60

Track gain : -7.95 dB Peak : 1.000000 CRC32 hash (test run) : F2CE910B CRC32 hash : F2CE910B CRC32 hash (skip zero) : F9B19E90 AccurateRip v1 signature : 0A5A53C7 AccurateRip v2 signature : 311950D5 ->Track not present in AccurateRip database. Statistics Read error : 0 Jitter error (maybe fixed) : 0 Retry sector count : 0 Damaged sector count : 0

Track 07 Filename : /Users/Shared/rips/Ben Folds Five - The Sound Of The Life Of The Mind (2012) [FLAC]/07 - Do It Anyway.flac /Users/Shared/rips/Ben Folds Five - The Sound Of The Life Of The Mind (2012) [MP3 320]/07 - Do It Anyway.mp3 /Users/Shared/rips/Ben Folds Five - The Sound Of The Life Of The Mind (2012) [MP3 V0]/07 - Do It Anyway.mp3 Pre-gap length : 00:00:25

Track gain : -8.50 dB Peak : 0.997070 CRC32 hash (test run) : 80D0B3A5 CRC32 hash : 80D0B3A5 CRC32 hash (skip zero) : 591A2A96 AccurateRip v1 signature : DD45C18C AccurateRip v2 signature : B1A2243B ->Track not present in AccurateRip database. Statistics Read error : 0 Jitter error (maybe fixed) : 0 Retry sector count : 0 Damaged sector count : 0

Track 08 Filename : /Users/Shared/rips/Ben Folds Five - The Sound Of The Life Of The Mind (2012) [FLAC]/08 - Hold That Thought.flac /Users/Shared/rips/Ben Folds Five - The Sound Of The Life Of The Mind (2012) [MP3 320]/08 - Hold That Thought.mp3 /Users/Shared/rips/Ben Folds Five - The Sound Of The Life Of The Mind (2012) [MP3 V0]/08 - Hold That Thought.mp3

Track gain : -7.07 dB Peak : 1.000000 CRC32 hash (test run) : 1BD2DCD9 CRC32 hash : 1BD2DCD9 CRC32 hash (skip zero) : CCA74426 AccurateRip v1 signature : 30E66A98 AccurateRip v2 signature : BF2324BE ->Track not present in AccurateRip database. Statistics Read error : 0 Jitter error (maybe fixed) : 0 Retry sector count : 0 Damaged sector count : 0

Track 09 Filename : /Users/Shared/rips/Ben Folds Five - The Sound Of The Life Of The Mind (2012) [FLAC]/09 - Away When You Were Here.flac /Users/Shared/rips/Ben Folds Five - The Sound Of The Life Of The Mind (2012) [MP3 320]/09 - Away When You Were Here.mp3 /Users/Shared/rips/Ben Folds Five - The Sound Of The Life Of The Mind (2012) [MP3 V0]/09 - Away When You Were Here.mp3 Pre-gap length : 00:00:29

Track gain : -8.19 dB Peak : 0.999969 CRC32 hash (test run) : AD13AE12 CRC32 hash : AD13AE12 CRC32 hash (skip zero) : 808A6BD0 AccurateRip v1 signature : 71C2DD4F AccurateRip v2 signature : 315D66B5 ->Track not present in AccurateRip database. Statistics Read error : 0 Jitter error (maybe fixed) : 0 Retry sector count : 0 Damaged sector count : 0

Track 10 Filename : /Users/Shared/rips/Ben Folds Five - The Sound Of The Life Of The Mind (2012) [FLAC]/10 - Thank You For Breaking My Heart.flac /Users/Shared/rips/Ben Folds Five - The Sound Of The Life Of The Mind (2012) [MP3 320]/10 - Thank You For Breaking My Heart.mp3 /Users/Shared/rips/Ben Folds Five - The Sound Of The Life Of The Mind (2012) [MP3 V0]/10 - Thank You For Breaking My Heart.mp3 Pre-gap length : 00:00:60

Track gain : -4.20 dB Peak : 0.991638 CRC32 hash (test run) : 878D74E5 CRC32 hash : 878D74E5 CRC32 hash (skip zero) : BD1DE72E AccurateRip v1 signature : 44465358 AccurateRip v2 signature : 6FD77E53 ->Track not present in AccurateRip database. Statistics Read error : 0 Jitter error (maybe fixed) : 0 Retry sector count : 0 Damaged sector count : 0

No errors occurred

End of status report
TITLE "The Sound Of The Life Of The Mind"PERFORMER "Ben Folds Five"REM GENRE "Pop"REM DATE "2012"REM DISCNUMBER 1REM TOTALDISCS 1REM DISCID 7D0A700AREM REPLAYGAIN_ALBUM_GAIN -8.07 dBREM REPLAYGAIN_ALBUM_PEAK 1.000000FILE "01 - Erase Me.flac" WAVE TRACK 01 AUDIO TITLE "Erase Me" SONGWRITER "Ben Folds" ISRC USQX91201269 REM REPLAYGAIN_TRACK_GAIN -8.14 dB REM REPLAYGAIN_TRACK_PEAK 1.000000 INDEX 01 00:00:00FILE "02 - Michael Praytor, Five Years Later.flac" WAVE TRACK 02 AUDIO TITLE "Michael Praytor, Five Years Later" SONGWRITER "Ben Folds" ISRC USQX91201270 REM REPLAYGAIN_TRACK_GAIN -8.34 dB REM REPLAYGAIN_TRACK_PEAK 1.000000 INDEX 01 00:00:00FILE "03 - Sky High.flac" WAVE TRACK 03 AUDIO TITLE "Sky High" SONGWRITER "Darren Jessee" ISRC USQX91201271 REM REPLAYGAIN_TRACK_GAIN -4.15 dB REM REPLAYGAIN_TRACK_PEAK 0.936615 INDEX 01 00:00:00FILE "04 - The Sound Of The Life Of The Mind.flac" WAVE TRACK 04 AUDIO TITLE "The Sound Of The Life Of The Mind" SONGWRITER "Ben Folds" ISRC USQX91201272 REM REPLAYGAIN_TRACK_GAIN -9.16 dB REM REPLAYGAIN_TRACK_PEAK 1.000000 INDEX 01 00:00:00 TRACK 05 AUDIO TITLE "On Being Frank" SONGWRITER "Ben Folds" ISRC USQX91201273 REM REPLAYGAIN_TRACK_GAIN -7.69 dB REM REPLAYGAIN_TRACK_PEAK 1.000000 INDEX 00 04:10:45FILE "05 - On Being Frank.flac" WAVE INDEX 01 00:00:00 TRACK 06 AUDIO TITLE "Draw A Crowd" SONGWRITER "Ben Folds" ISRC USQX91201274 REM REPLAYGAIN_TRACK_GAIN -7.95 dB REM REPLAYGAIN_TRACK_PEAK 1.000000 INDEX 00 04:33:11FILE "06 - Draw A Crowd.flac" WAVE INDEX 01 00:00:00 TRACK 07 AUDIO TITLE "Do It Anyway" SONGWRITER "Ben Folds" ISRC USQX91201275 REM REPLAYGAIN_TRACK_GAIN -8.50 dB REM REPLAYGAIN_TRACK_PEAK 0.997070 INDEX 00 04:14:28FILE "07 - Do It Anyway.flac" WAVE INDEX 01 00:00:00FILE "08 - Hold That Thought.flac" WAVE TRACK 08 AUDIO TITLE "Hold That Thought" SONGWRITER "Ben Folds" ISRC USQX91201276 REM REPLAYGAIN_TRACK_GAIN -7.07 dB REM REPLAYGAIN_TRACK_PEAK 1.000000 INDEX 01 00:00:00 TRACK 09 AUDIO TITLE "Away When You Were Here" SONGWRITER "Ben Folds" ISRC USQX91201277 REM REPLAYGAIN_TRACK_GAIN -8.19 dB REM REPLAYGAIN_TRACK_PEAK 0.999969 INDEX 00 04:14:09FILE "09 - Away When You Were Here.flac" WAVE INDEX 01 00:00:00 TRACK 10 AUDIO TITLE "Thank You For Breaking My Heart" SONGWRITER "Ben Folds" ISRC USQX91201278 REM REPLAYGAIN_TRACK_GAIN -4.20 dB REM REPLAYGAIN_TRACK_PEAK 0.991638 INDEX 00 03:30:71FILE "10 - Thank You For Breaking My Heart.flac" WAVE INDEX 01 00:00:00


Трекер:  [ 24-Сен-2012 09:21 ]

  

Скачать .torrent

Размер .torrent файла 12 KB


Размер: 284 MB
Хэш (hash) релиза: d5271dd4fae7f3cfbee2363842bc9547ef2c726d

Торренты, похожие на Ben Folds Five - The Sound of the Life of the Mind - 2012, скачать торрент

Форум Название Автор Размер S L Добавлен
Зарубежный Rock ·· (Pop-rock/Piano Rock) Ben Folds Five - The Sound of the Life of the Mind - 2012, MP3, 320 kbps Galfimbul 107974522103 MB 0 0 1348063080

16:58

19-Сен-12

Еще никто не оставлял запись к записи скачать торрент Ben Folds Five - The Sound of the Life of the Mind - 2012, . Будь первым!

!Обратная связь