Скачать через торрент музыку Redline - Vice бесплатно без регистрации torrent

Если у вас наблюдаются проблемы со скриншотами, переходом по ссылками, скачиванием торрентов - проблемы в блокировщике рекламы AdBlock. #хорошегоДня!


Статистика раздачи
Размер:  324 MB   |    Зарегистрирован:  5 лет   |    .torrent скачан:  17 раз   |   
Раздают:  1  
   
Загрузка...
 
Автор Сообщение

Galfimbul

avatar Galfimbul


Redline ~ Vice (2012)
Жанр: Hard Rock
Страна-производитель диска: England
Год издания: 2012
Издатель (лейбл): Escape Music
Номер по каталогу: ESM245
Страна: England
Аудиокодек: APE (*.ape)
Тип рипа: image+.cue
Битрейт аудио: lossless
Продолжительность: 44:08
Источник (релизер): Собственный рип с оригинального диска
Наличие сканов в содержимом раздачи: да
Треклист:
1. Battle Cry
2. King Of The Mountain
3. Black Sky
4. No Limits
5. Twistin' The Knife
6. Cold Silence
7. High Price to Pay
8. The Edge Of Falling
9. Some Kinda' Mean
10. We Came To Rock
Второй студийный альбом замечательной английской хард-роковой команды. Замена вокалиста придала группе более жёсткое звучание, я бы сказал, звук стал мощнее! Даже перепетые песни с первого альбома звучат как новые, незнакомые темы!!!
Exact Audio Copy V0.99 prebeta 5 from 4. May 2009

EAC extraction logfile from 20. September 2012, 18:56

Redline / Vice

Used drive : HL-DT-STDVDRAM GH24LS70 Adapter: 1 ID: 1

Read mode : SecureUtilize accurate stream : YesDefeat audio cache : YesMake use of C2 pointers : No

Read offset correction : 667Overread into Lead-In and Lead-Out : NoFill up missing offset samples with silence : YesDelete leading and trailing silent blocks : NoNull samples used in CRC calculations : YesUsed interface : Installed external ASPI interface

Used output format : Internal WAV RoutinesSample format : 44.100 Hz; 16 Bit; Stereo

TOC of the extracted CD

Track | Start | Length | Start sector | End sector --------------------------------------------------------- 1 | 0:00.00 | 4:16.52 | 0 | 19251 2 | 4:16.52 | 3:51.30 | 19252 | 36606 3 | 8:08.07 | 5:19.08 | 36607 | 60539 4 | 13:27.15 | 4:11.04 | 60540 | 79368 5 | 17:38.19 | 4:58.63 | 79369 | 101781 6 | 22:37.07 | 4:34.24 | 101782 | 122355 7 | 27:11.31 | 3:52.00 | 122356 | 139755 8 | 31:03.31 | 4:14.69 | 139756 | 158874 9 | 35:18.25 | 4:36.72 | 158875 | 179646 10 | 39:55.22 | 4:13.41 | 179647 | 198662

Range status and errors

Selected range

Filename E:\Redline - Vice (2012)\Vice.wav

Peak level 98.8 % Range quality 100.0 % Copy CRC CDEA6316 Copy OK

No errors occurred

End of status report
Kez Taylor (vocals)
Ade Yeomans (guitar)
Mark Biddiscombe (drums)
Steve Hill (bass)
Steve Petty (guitar)


Трекер:  [ 24-Сен-2012 09:21 ]

  

Скачать .torrent

Размер .torrent файла 13 KB


Размер: 324 MB
Хэш (hash) релиза: 9e31b553abb1670b5bb28526e53ef7d949da44c6

Торренты, похожие на Redline - Vice скачать торрент

Форум Название Автор Размер S L Добавлен
Зарубежный Rock ·· (Hard Rock) Redline - Vice - 2012, MP3, 320 kbps Galfimbul 105978111101 MB 0 0 1348063800

17:10

19-Сен-12

Еще никто не оставлял запись к записи скачать торрент Redline - Vice . Будь первым!

!Обратная связь