Скачать через торрент музыку The Godz - Contact High with the Godz бесплатно без регистрации torrent

Если у вас наблюдаются проблемы со скриншотами, переходом по ссылками, скачиванием торрентов - проблемы в блокировщике рекламы AdBlock. #хорошегоДня!


Статистика раздачи
Размер:  350 MB   |    Зарегистрирован:  5 лет 1 месяц   |    .torrent скачан:  15 раз   |   
Раздают:  1  
   
Загрузка...
 
Автор Сообщение

Galfimbul

avatar Galfimbul


The Godz
Жанр: Garage, Psychedelic Rock, Proto-Punk
Страна-производитель диска: USA
Год издания диска: 1992
Издатель (лейбл): ESP-Disk
Страна: USA
Аудиокодек: FLAC (*.flac)
Тип рипа: tracks+.cue
Битрейт аудио: lossless
Продолжительность: 1:05:37
Источник (релизер): what.cd()
Наличие сканов в содержимом раздачи: да (немного)
The Godz musicians were guitarist Jim McCarthy, bassist Larry Kessler, autoharpist Jay Dillon, and drummer Paul Thornton. They started the band after Larry Kessler met Jim McCarthy and Paul Thornton when they all took jobs in the 49th Street location of the musical instruments store Sam Goody's.

According to McCarthy they came up with their musical approach on this situation: "One day Paul came over to visit them, and the three gathered in Larry's living room to smoke a joint." What happened next was purely accidental, according to Jim: "There were all these percussive instruments lying around and out of total frustration, I got up and started shaking a tambourine or something like that, and that's how it all started. We all started to get up and make noise like a bunch of maniacs, expressing our frustration."

After this event, "Larry made a suggestion that had both Jim and Paul questioning his sanity: that the three audition this impromptu 'band' for ESP." Larry Kessler had been working for the ESP-Disk jazz record label which was founded by Bernard Stollman. ESP also released recordings by other two underground rock bands from this era from New York City: the Fugs and Pearls Before Swine.

The Godz' first recording session took place on September 28, 1966 from which came their first album Contact High released on 1966. They released their second LP in 1967 called Godz 2. Without Jay Dillon "the remaining three Godz cut The Third Testament (in 1969), inviting several friends to invade the studio and freak out on a few numbers (a concept borrowed from the Red Crayola's Parable of Arable Land), then filling in the rest with solo numbers by each of the three remaining members." Their final album was released in 1973 and it was called Godzundheit.

In July 2005, Jay Dillon's niece posted a message stating that he had died several years before. Two years later in early 2007, the surviving members, Jim McCarthy, Larry Kessler, and Paul Thornton, reunited to produce new recordings. Those recordings appear on The Godz Remastered, released by Manta Ray Records in 2012
The Godz / Contact High with the Godz (1966)

Страна-производитель диска: USA
Год издания диска: 1992
Издатель (лейбл): ESP-Disk
Номер по каталогу: ESP 1037-2
Аудиокодек: FLAC (*.flac)
Тип рипа: tracks+.cue
Битрейт аудио: lossless
Продолжительность: 25:01
Наличие сканов в содержимом раздачи: да (немного)
Треклист:
01. White Cat Heat (2:12)
02. Turn On (4:22)
03. Na Na Naa (2:58)
04. Eleven (3:57)
05. 1+1=? (2:40)
06. Lay In The Sun (2:57)
07. Squeak (2:55)
08. Godz (1:27)
09. May You Never Be Alone Like Me (1:34)
Exact Audio Copy V1.0 beta 1 from 15. November 2010

EAC extraction logfile from 12. June 2011, 21:06

The Godz / Contact High With The Godz

Used drive : TSSTcorpCD/DVDW SH-S182D Adapter: 1 ID: 0

Read mode : SecureUtilize accurate stream : YesDefeat audio cache : YesMake use of C2 pointers : No

Read offset correction : 6Overread into Lead-In and Lead-Out : NoFill up missing offset samples with silence : YesDelete leading and trailing silent blocks : NoNull samples used in CRC calculations : YesUsed interface : Native Win32 interface for Win NT & 2000Gap handling : Appended to previous track

Used output format : User Defined EncoderSelected bitrate : 128 kBit/sQuality : HighAdd ID3 tag : NoCommand line compressor : C:\Program Files\Exact Audio Copy\Flac\flac.exeAdditional command line options : -V -8 -T "artist=%a" -T "title=%t" -T "album=%g" -T "date=%y" -T "tracknumber=%n" -T "genre=%m" %s

TOC of the extracted CD

Track | Start | Length | Start sector | End sector --------------------------------------------------------- 1 | 0:00.00 | 2:11.55 | 0 | 9879 2 | 2:11.55 | 4:21.42 | 9880 | 29496 3 | 6:33.22 | 2:58.08 | 29497 | 42854 4 | 9:31.30 | 3:56.72 | 42855 | 60626 5 | 13:28.27 | 2:39.73 | 60627 | 72624 6 | 16:08.25 | 2:57.17 | 72625 | 85916 7 | 19:05.42 | 2:54.40 | 85917 | 99006 8 | 22:00.07 | 1:26.63 | 99007 | 105519 9 | 23:26.70 | 1:34.37 | 105520 | 112606

Track 1

Filename D:\EAC Rips\The Godz - 1966 - Contact High With The Godz\01 - White Cat Heat.wav

Pre-gap length 0:00:02.00

Peak level 63.6 % Extraction speed 2.2 X Track quality 100.0 % Test CRC B87BD5D3 Copy CRC B87BD5D3 Accurately ripped (confidence 2) [0238FDED] Copy OK

Track 2

Filename D:\EAC Rips\The Godz - 1966 - Contact High With The Godz\02 - Turn On.wav

Peak level 69.1 % Extraction speed 2.7 X Track quality 100.0 % Test CRC 7A57AD54 Copy CRC 7A57AD54 Accurately ripped (confidence 2) [076F0F4B] Copy OK

Track 3

Filename D:\EAC Rips\The Godz - 1966 - Contact High With The Godz\03 - Na Na Naa.wav

Peak level 59.8 % Extraction speed 2.8 X Track quality 100.0 % Test CRC 1C32E3FF Copy CRC 1C32E3FF Accurately ripped (confidence 2) [14D64AC1] Copy OK

Track 4

Filename D:\EAC Rips\The Godz - 1966 - Contact High With The Godz\04 - Eleven.wav

Peak level 87.0 % Extraction speed 3.2 X Track quality 100.0 % Test CRC 26E9790A Copy CRC 26E9790A Accurately ripped (confidence 2) [BEED2124] Copy OK

Track 5

Filename D:\EAC Rips\The Godz - 1966 - Contact High With The Godz\05 - 1+1=.wav

Peak level 86.5 % Extraction speed 3.1 X Track quality 100.0 % Test CRC EFDE7BC8 Copy CRC EFDE7BC8 Accurately ripped (confidence 3) [EEFDCD2D] Copy OK

Track 6

Filename D:\EAC Rips\The Godz - 1966 - Contact High With The Godz\06 - Lay In The Sun.wav

Peak level 74.0 % Extraction speed 3.3 X Track quality 100.0 % Test CRC 7958DE16 Copy CRC 7958DE16 Accurately ripped (confidence 3) [245D69B8] Copy OK

Track 7

Filename D:\EAC Rips\The Godz - 1966 - Contact High With The Godz\07 - Squeak.wav

Peak level 63.6 % Extraction speed 3.5 X Track quality 100.0 % Test CRC 19F5E9CA Copy CRC 19F5E9CA Accurately ripped (confidence 2) [A084313B] Copy OK

Track 8

Filename D:\EAC Rips\The Godz - 1966 - Contact High With The Godz\08 - Godz.wav

Peak level 42.4 % Extraction speed 3.0 X Track quality 100.0 % Test CRC 58616B70 Copy CRC 58616B70 Accurately ripped (confidence 2) [9B78402D] Copy OK

Track 9

Filename D:\EAC Rips\The Godz - 1966 - Contact High With The Godz\09 - May You Never Be Alone Like Me.wav

Peak level 50.5 % Extraction speed 3.1 X Track quality 100.0 % Test CRC 47FAE97F Copy CRC 47FAE97F Accurately ripped (confidence 2) [C6F5843F] Copy OK

All tracks accurately ripped

No errors occurred

End of status report

==== Log checksum 5615D8F39AEF9CFBDA1FAF92BF4AA3B5C2AE62337020FBAADB2190483E0AEABE ====
REM GENRE RockREM DATE 1966REM DISCID 6405DD09REM COMMENT "ExactAudioCopy v1.0b1"FILE "The Godz - 1966 - Contact High With The Godz\01 - White Cat Heat.wav" WAVE TRACK 01 AUDIO INDEX 01 00:00:00FILE "The Godz - 1966 - Contact High With The Godz\02 - Turn On.wav" WAVE TRACK 02 AUDIO INDEX 01 00:00:00FILE "The Godz - 1966 - Contact High With The Godz\03 - Na Na Naa.wav" WAVE TRACK 03 AUDIO INDEX 01 00:00:00FILE "The Godz - 1966 - Contact High With The Godz\04 - Eleven.wav" WAVE TRACK 04 AUDIO INDEX 01 00:00:00FILE "The Godz - 1966 - Contact High With The Godz\05 - 1+1=.wav" WAVE TRACK 05 AUDIO INDEX 01 00:00:00FILE "The Godz - 1966 - Contact High With The Godz\06 - Lay In The Sun.wav" WAVE TRACK 06 AUDIO INDEX 01 00:00:00FILE "The Godz - 1966 - Contact High With The Godz\07 - Squeak.wav" WAVE TRACK 07 AUDIO INDEX 01 00:00:00FILE "The Godz - 1966 - Contact High With The Godz\08 - Godz.wav" WAVE TRACK 08 AUDIO INDEX 01 00:00:00FILE "The Godz - 1966 - Contact High With The Godz\09 - May You Never Be Alone Like Me.wav" WAVE TRACK 09 AUDIO INDEX 01 00:00:00
Clocking in at a hair over 25 minutes, Contact High is an unholy mess of a record. Opening with the track "White Cat Heat," which consists of clumsily strummed acoustic guitars, arhythmic percussion, and Jim McCarthy and Larry Kessler screeching like a couple of, uh, cats in heat, it gets weirder. Best tracks are "1+1 Equals ?" and the hilarious "Lay in the Sun" (total lyrics: "All I want to do is lay in the sun"). For those who like their pop on the cutting edge, begin here and don't turn back.
The Godz / Godz 2 (1967)

Страна-производитель диска: USA
Год издания диска: 1992
Издатель (лейбл): ESP-Disk
Номер по каталогу: ESP 1047-2
Аудиокодек: FLAC (*.flac)
Тип рипа: tracks+.cue
Битрейт аудио: lossless
Продолжительность: 40:36
Наличие сканов в содержимом раздачи: да (немного)
Треклист:
01. Radar Eyes (2:11)
02. Riffin' (3:08)
03. Where (4:16)
04. New Song (1:43)
05. Squeak (4:44)
06. Soon The Moon (4:03)
07. Crusade (8:37)
08. You Won't See Me (5:43)
09. Travelin' Salesman (2:06)
10. Permanent Green Light (4:05)
Exact Audio Copy V1.0 beta 1 from 15. November 2010

EAC extraction logfile from 12. June 2011, 20:21

Godz / Godz 2

Used drive : TSSTcorpCD/DVDW SH-S182D Adapter: 1 ID: 0

Read mode : SecureUtilize accurate stream : YesDefeat audio cache : YesMake use of C2 pointers : No

Read offset correction : 6Overread into Lead-In and Lead-Out : NoFill up missing offset samples with silence : YesDelete leading and trailing silent blocks : NoNull samples used in CRC calculations : YesUsed interface : Native Win32 interface for Win NT & 2000Gap handling : Appended to previous track

Used output format : User Defined EncoderSelected bitrate : 128 kBit/sQuality : HighAdd ID3 tag : NoCommand line compressor : C:\Program Files\Exact Audio Copy\Flac\flac.exeAdditional command line options : -V -8 -T "artist=%a" -T "title=%t" -T "album=%g" -T "date=%y" -T "tracknumber=%n" -T "genre=%m" %s

TOC of the extracted CD

Track | Start | Length | Start sector | End sector --------------------------------------------------------- 1 | 0:00.00 | 2:10.65 | 0 | 9814 2 | 2:10.65 | 3:07.60 | 9815 | 23899 3 | 5:18.50 | 4:15.67 | 23900 | 43091 4 | 9:34.42 | 1:43.13 | 43092 | 50829 5 | 11:17.55 | 4:44.22 | 50830 | 72151 6 | 16:02.02 | 4:03.20 | 72152 | 90396 7 | 20:05.22 | 8:37.13 | 90397 | 129184 8 | 28:42.35 | 5:43.15 | 129185 | 154924 9 | 34:25.50 | 2:05.40 | 154925 | 164339 10 | 36:31.15 | 4:05.10 | 164340 | 182724

Track 1

Filename D:\EAC Rips\Godz - 1967 - Godz 2\01 - Radar Eyes.wav

Pre-gap length 0:00:02.00

Peak level 51.3 % Extraction speed 3.6 X Track quality 100.0 % Test CRC D8E5B983 Copy CRC D8E5B983 Track not present in AccurateRip database Copy OK

Track 2

Filename D:\EAC Rips\Godz - 1967 - Godz 2\02 - Riffin'.wav

Peak level 62.4 % Extraction speed 4.3 X Track quality 100.0 % Test CRC F3848494 Copy CRC F3848494 Track not present in AccurateRip database Copy OK

Track 3

Filename D:\EAC Rips\Godz - 1967 - Godz 2\03 - Where.wav

Peak level 48.1 % Extraction speed 4.9 X Track quality 100.0 % Test CRC B105023F Copy CRC B105023F Track not present in AccurateRip database Copy OK

Track 4

Filename D:\EAC Rips\Godz - 1967 - Godz 2\04 - New Song.wav

Peak level 41.0 % Extraction speed 4.4 X Track quality 100.0 % Test CRC 04F69A8B Copy CRC 04F69A8B Track not present in AccurateRip database Copy OK

Track 5

Filename D:\EAC Rips\Godz - 1967 - Godz 2\05 - Squeak.wav

Peak level 79.8 % Extraction speed 5.6 X Track quality 100.0 % Test CRC 1D51DC9C Copy CRC 1D51DC9C Track not present in AccurateRip database Copy OK

Track 6

Filename D:\EAC Rips\Godz - 1967 - Godz 2\06 - Soon The Moon.wav

Peak level 93.1 % Extraction speed 5.9 X Track quality 100.0 % Test CRC 230B33B4 Copy CRC 230B33B4 Track not present in AccurateRip database Copy OK

Track 7

Filename D:\EAC Rips\Godz - 1967 - Godz 2\07 - Crusade.wav

Peak level 60.5 % Extraction speed 6.9 X Track quality 100.0 % Test CRC 206CF8AE Copy CRC 206CF8AE Track not present in AccurateRip database Copy OK

Track 8

Filename D:\EAC Rips\Godz - 1967 - Godz 2\08 - You Won't See Me.wav

Peak level 35.7 % Extraction speed 7.1 X Track quality 100.0 % Test CRC 2674A28D Copy CRC 2674A28D Track not present in AccurateRip database Copy OK

Track 9

Filename D:\EAC Rips\Godz - 1967 - Godz 2\09 - Travelin' Salesman.wav

Peak level 32.6 % Extraction speed 5.1 X Track quality 99.9 % Test CRC 270623CE Copy CRC 270623CE Track not present in AccurateRip database Copy OK

Track 10

Filename D:\EAC Rips\Godz - 1967 - Godz 2\10 - Permanent Green Light.wav

Peak level 93.1 % Extraction speed 7.4 X Track quality 100.0 % Test CRC FA35F3FA Copy CRC FA35F3FA Track not present in AccurateRip database Copy OK

None of the tracks are present in the AccurateRip database

No errors occurred

End of status report

==== Log checksum 0EEDCA832E3EE7FF998F2F29296C819A99BFC99A612492E00101520C00A2F989 ====
REM GENRE "Rock & Roll"REM DATE 1967REM DISCID 7E09840AREM COMMENT "ExactAudioCopy v1.0b1"FILE "Godz - 1967 - Godz 2\01 - Radar Eyes.wav" WAVE TRACK 01 AUDIO INDEX 01 00:00:00FILE "Godz - 1967 - Godz 2\02 - Riffin'.wav" WAVE TRACK 02 AUDIO INDEX 01 00:00:00FILE "Godz - 1967 - Godz 2\03 - Where.wav" WAVE TRACK 03 AUDIO INDEX 01 00:00:00FILE "Godz - 1967 - Godz 2\04 - New Song.wav" WAVE TRACK 04 AUDIO INDEX 01 00:00:00FILE "Godz - 1967 - Godz 2\05 - Squeak.wav" WAVE TRACK 05 AUDIO INDEX 01 00:00:00FILE "Godz - 1967 - Godz 2\06 - Soon The Moon.wav" WAVE TRACK 06 AUDIO INDEX 01 00:00:00FILE "Godz - 1967 - Godz 2\07 - Crusade.wav" WAVE TRACK 07 AUDIO INDEX 01 00:00:00FILE "Godz - 1967 - Godz 2\08 - You Won't See Me.wav" WAVE TRACK 08 AUDIO INDEX 01 00:00:00FILE "Godz - 1967 - Godz 2\09 - Travelin' Salesman.wav" WAVE TRACK 09 AUDIO INDEX 01 00:00:00FILE "Godz - 1967 - Godz 2\10 - Permanent Green Light.wav" WAVE TRACK 10 AUDIO INDEX 01 00:00:00
Even further out than Contact High with the Godz, Godz Two is, at times, one of the most deliberately annoying, purposefully incompetent albums ever made. White Light/White Heat has nothing on it, though admittedly the much purer in intent, Philosophy of the World has it beat for sheer cacophony. But it's hard to get one's head around tracks like "Squeak," a nearly five-minute violin solo by Larry Kessler that sounds like what might happen if someone slowly fed a Stradivarius through a crosscut paper shredder, and the bewilderingly random "Riffin'," which sounds like the work of a set of off-their-meds paranoid schizophrenics posing as the Holy Modal Rounders. Other tracks, however, foretell the almost normal pop song direction that the Godz would explore on their next album: "Soon the Moon" and the closing "Permanent Green Light" foreshadow both the streamlined motorik sound of Neu! and other Krautrock-based bands and the inspired amateurism that was the stock in trade of the Flying Nun Records stable in the mid-'80s. A hacksawed cover of the Beatles' "You Won't See Me" splits the difference.
1) На тему обложки Contact High with the Godz:
Рип в раздаче сделан с издания 1992-ого года. Достоверно известно, что первое издание на CD ESP/ZYX (Germany) 1988-ого имело рыженьку обложку, наиболее популярна однако другая a-la Sex Pistols (я лично считаю ее, мягко говоря, неаутентичной), она присутствовала на изданиях GetBack и ESP/Abraxas (Italy) 1998-ого. Относительно обложек ремастеров ESP-Disk и Calibre я не уверен. Издание 2010 ESP-Disk вернуло альбому оригинальную обложку LP (она помещена в заголовок). Также в раздачу помещены front+back (LP) от mono и stereo изданий оригиналов, а также позднего переиздания.
2) На тему дискографии:
У команды с названием The Godz 4 альбома:
The Godz - Contact High With The Godz (1966) [ESP-Disk 1037]
The Godz - Godz 2 (1967) [ESP-Disk 1047]
The Godz - The Third Testament (1968) [ESP-Disk 1077]
The Godz - Godzundheit (1973) [ESP-Disk 2017]

Первые 3 ремастированы в 2000-ом

однако в 1993-ем ESP-Disk также издавало и такие диски
The Godz - Alien (1973) [ESP-Disk 3008] , что является сольником Jim McCarthy - Alien (1973), что и исправлено в последующих изданиях.
The Godz - God Bless California (1974) [ESP-Disk 3019] , что является альбомом Thornton, Fradkin And Unger - Pass On This Side (1974), без Jim McCarthy, однако с Paul & Linda McCartney и David Peel на вокале в парочке песен.

+
несколько попыток ревайвала:
Larry Kessler - Godz Revival (1996) и
Paul Thornton & Les Fradkin - Godzology (2000) включающий в себя как демо записи 70-х, так и новый материал.


Трекер:  [ 24-Сен-2012 09:21 ]

  

Скачать .torrent

Размер .torrent файла 18 KB


Размер: 350 MB
Хэш (hash) релиза: 90612c83192b5d217c2a0512960bddbdfbdd6a57

Еще никто не оставлял запись к записи скачать торрент The Godz - Contact High with the Godz . Будь первым!

!Обратная связь