Скачать через торрент музыку The Johnstons - Colours Of The Dawn бесплатно без регистрации torrent

Если у вас наблюдаются проблемы со скриншотами, переходом по ссылками, скачиванием торрентов - проблемы в блокировщике рекламы AdBlock. #хорошегоДня!


Статистика раздачи
Размер:  216 MB   |    Зарегистрирован:  4 года 10 месяцев   |    .torrent скачан:  21 раз   |   
Раздают:  1  
   
Загрузка...
 
Автор Сообщение

Galfimbul

avatar Galfimbul


The Johnstons - Colours Of The Dawn

Жанр: Folk Rock, Celtic
Страна-производитель диска: UK
Год издания диска: 1996
Издатель (лейбл): Wooded Hill Recordings/Transatlantic Records Ltd.
Номер по каталогу: HILLCD 9
Страна: Irish
Аудио кодек: FLAC (*.flac)
Тип рипа: tracks+.cue
Битрейт аудио: lossless
Продолжительность: 00:35:11
Источник (релизер): markav10
Наличие сканов в содержимом раздачи: да

Треклист:

01. Hello 03:49
02. Crazy 03:20
03. Brightness She Came 03:39
04. If I Could 03:42
05. Angela Davis 03:37
06. Colours Of The Dawn 04:44
07. I'll Be Gone In The Morning 04:42
08. Seems So Long Ago 04:02
09. Old Man'S Tale 03:32
Exact Audio Copy V0.99 prebeta 5 from 4. May 2009

EAC extraction logfile from 31. January 2010, 21:34

The Johnstons / Colours Of The Dawn

Used drive : TSSTcorpCDDVDW SH-S223F Adapter: 0 ID: 0

Read mode : SecureUtilize accurate stream : YesDefeat audio cache : YesMake use of C2 pointers : No

Read offset correction : 6Overread into Lead-In and Lead-Out : NoFill up missing offset samples with silence : YesDelete leading and trailing silent blocks : NoNull samples used in CRC calculations : YesUsed interface : Installed external ASPI interfaceGap handling : Appended to previous track

Used output format : User Defined EncoderSelected bitrate : 192 kBit/sQuality : HighAdd ID3 tag : NoCommand line compressor : C:\Program Files\Exact Audio Copy\Flac\flac.exeAdditional command line options : -V -8 -T "artist=%a" -T "title=%t" -T "album=%g" -T "date=%y" -T "tracknumber=%n" -T "genre=%m" %s

TOC of the extracted CD

Track | Start | Length | Start sector | End sector --------------------------------------------------------- 1 | 0:00.00 | 3:49.37 | 0 | 17211 2 | 3:49.37 | 3:20.18 | 17212 | 32229 3 | 7:09.55 | 3:39.30 | 32230 | 48684 4 | 10:49.10 | 3:42.47 | 48685 | 65381 5 | 14:31.57 | 3:37.68 | 65382 | 81724 6 | 18:09.50 | 4:44.15 | 81725 | 103039 7 | 22:53.65 | 4:42.60 | 103040 | 124249 8 | 27:36.50 | 4:02.47 | 124250 | 142446 9 | 31:39.22 | 3:32.05 | 142447 | 158351

Track 1

Filename Z:\EAC\The Johnstons - 1996 - Colours Of The Dawn [FLAC]\01 - Hello.wav

Pre-gap length 0:00:02.00

Peak level 96.7 % Track quality 100.0 % Test CRC 8BDF89D7 Copy CRC 8BDF89D7 Track not present in AccurateRip database Copy OK

Track 2

Filename Z:\EAC\The Johnstons - 1996 - Colours Of The Dawn [FLAC]\02 - Crazy.wav

Pre-gap length 0:00:03.00

Peak level 67.0 % Track quality 99.9 % Test CRC A30ED144 Copy CRC A30ED144 Track not present in AccurateRip database Copy OK

Track 3

Filename Z:\EAC\The Johnstons - 1996 - Colours Of The Dawn [FLAC]\03 - Brightness She Came.wav

Pre-gap length 0:00:04.00

Peak level 92.8 % Track quality 100.0 % Test CRC 6CB5DFB9 Copy CRC 6CB5DFB9 Track not present in AccurateRip database Copy OK

Track 4

Filename Z:\EAC\The Johnstons - 1996 - Colours Of The Dawn [FLAC]\04 - If I Could.wav

Pre-gap length 0:00:04.00

Peak level 100.0 % Track quality 100.0 % Test CRC F5BD3C33 Copy CRC F5BD3C33 Track not present in AccurateRip database Copy OK

Track 5

Filename Z:\EAC\The Johnstons - 1996 - Colours Of The Dawn [FLAC]\05 - Angela Davis.wav

Pre-gap length 0:00:01.00

Peak level 95.2 % Track quality 100.0 % Test CRC A4599002 Copy CRC A4599002 Track not present in AccurateRip database Copy OK

Track 6

Filename Z:\EAC\The Johnstons - 1996 - Colours Of The Dawn [FLAC]\06 - Colours Of The Dawn.wav

Pre-gap length 0:00:04.00

Peak level 100.0 % Track quality 100.0 % Test CRC B6349607 Copy CRC B6349607 Track not present in AccurateRip database Copy OK

Track 7

Filename Z:\EAC\The Johnstons - 1996 - Colours Of The Dawn [FLAC]\07 - I'Ll Be Gone In The Morning.wav

Pre-gap length 0:00:04.00

Peak level 98.8 % Track quality 100.0 % Test CRC 68BF2E68 Copy CRC 68BF2E68 Track not present in AccurateRip database Copy OK

Track 8

Filename Z:\EAC\The Johnstons - 1996 - Colours Of The Dawn [FLAC]\08 - Seems So Long Ago.wav

Pre-gap length 0:00:02.00

Peak level 79.0 % Track quality 100.0 % Test CRC 2E2341D1 Copy CRC 2E2341D1 Track not present in AccurateRip database Copy OK

Track 9

Filename Z:\EAC\The Johnstons - 1996 - Colours Of The Dawn [FLAC]\09 - Old Man'S Tale.wav

Pre-gap length 0:00:04.00

Peak level 100.0 % Track quality 100.0 % Test CRC 5A8071E1 Copy CRC 5A8071E1 Track not present in AccurateRip database Copy OK

None of the tracks are present in the AccurateRip database

No errors occurred

End of status report
REM GENRE CelticREM DATE 1996REM DISCID 68083F09REM COMMENT "ExactAudioCopy v0.99pb5"PERFORMER "The Johnstons"TITLE "Colours Of The Dawn"FILE "01 - Hello.wav" WAVE TRACK 01 AUDIO TITLE "Hello" PERFORMER "The Johnstons" INDEX 01 00:00:00 TRACK 02 AUDIO TITLE "Crazy" PERFORMER "The Johnstons" INDEX 00 03:46:37FILE "02 - Crazy.wav" WAVE INDEX 01 00:00:00 TRACK 03 AUDIO TITLE "Brightness She Came" PERFORMER "The Johnstons" INDEX 00 03:16:18FILE "03 - Brightness She Came.wav" WAVE INDEX 01 00:00:00 TRACK 04 AUDIO TITLE "If I Could" PERFORMER "The Johnstons" INDEX 00 03:35:30FILE "04 - If I Could.wav" WAVE INDEX 01 00:00:00 TRACK 05 AUDIO TITLE "Angela Davis" PERFORMER "The Johnstons" INDEX 00 03:41:47FILE "05 - Angela Davis.wav" WAVE INDEX 01 00:00:00 TRACK 06 AUDIO TITLE "Colours Of The Dawn" PERFORMER "The Johnstons" INDEX 00 03:33:68FILE "06 - Colours Of The Dawn.wav" WAVE INDEX 01 00:00:00 TRACK 07 AUDIO TITLE "I'Ll Be Gone In The Morning" PERFORMER "The Johnstons" INDEX 00 04:40:15FILE "07 - I'Ll Be Gone In The Morning.wav" WAVE INDEX 01 00:00:00 TRACK 08 AUDIO TITLE "Seems So Long Ago" PERFORMER "The Johnstons" INDEX 00 04:40:60FILE "08 - Seems So Long Ago.wav" WAVE INDEX 01 00:00:00 TRACK 09 AUDIO TITLE "Old Man'S Tale" PERFORMER "The Johnstons" INDEX 00 03:58:47FILE "09 - Old Man'S Tale.wav" WAVE INDEX 01 00:00:00
-----------------------

DON'T MODIFY THIS FILE

-----------------------

PERFORMER: auCDtect Task Manager, ver. 1.5.1RC4 build 1.5.1.5Copyright (c) 2008-2010 y-soft. All rights reservedhttp://y-soft.org

ANALYZER: auCDtect: CD records authenticity detector, version 0.8.2Copyright (c) 2004 Oleg Berngardt. All rights reserved.Copyright (c) 2004 Alexander Djourik. All rights reserved.

FILE: 09 - Old Man'S Tale.flac Size: 22096567 Hash: 8E2279382BC57DC835081E094B0CA4A7 Accuracy: -m8 Conclusion: CDDA 100% Signature: A703100EC6B618BCFE60800A6C90592ECA6A3F8EFILE: 08 - Seems So Long Ago.flac Size: 25184889 Hash: F66C8DE7DFE20447D54546475CA122F6 Accuracy: -m8 Conclusion: CDDA 99% Signature: 51565A5AA8E1DC8FFA8F2FFD91714480F98B36ECFILE: 07 - I'll Be Gone In The Morning.flac Size: 30729356 Hash: 42F12488E062455457835104D626BC28 Accuracy: -m8 Conclusion: CDDA 100% Signature: 6F036B09983751DF51155CCFBCCFE12ABF127AA2FILE: 06 - Colours Of The Dawn.flac Size: 31996694 Hash: A488C6F3BFD131F07ECDA5812AA63D56 Accuracy: -m8 Conclusion: CDDA 100% Signature: 0F5E16F6B39DADE8380F187A66CC6E74292EF882FILE: 05 - Angela Davis.flac Size: 22965707 Hash: 014D7CC935917E92836F52F8FA33B8F6 Accuracy: -m8 Conclusion: CDDA 100% Signature: BE1EF49F07090314EAD98184506EE90400C813E3FILE: 04 - If I Could.flac Size: 24464930 Hash: 8FCC6EE1AE89B3D0CF6664B8DEA720B1 Accuracy: -m8 Conclusion: CDDA 100% Signature: C61093B09B2575D89553943DC881CD37BBE2AB63FILE: 03 - Brightness She Came.flac Size: 22033414 Hash: 72BF483843C3D5E1F95C90701211A91F Accuracy: -m8 Conclusion: CDDA 100% Signature: 7FCE22249FA816D8B541FDE21E042EACF8FB1D39FILE: 02 - Crazy.flac Size: 20899911 Hash: 342AD82A03D3FD2562AF6C46AD819D06 Accuracy: -m8 Conclusion: CDDA 100% Signature: DA24C90A962BDEFA37C8FFB8D0B0A581EA500B04FILE: 01 - Hello.flac Size: 25054811 Hash: 7E6B06DB63A97585A19F2A54507B7435 Accuracy: -m8 Conclusion: CDDA 100% Signature: 0EDA6272A876E3FF24C560CA89A7070386BFA1CF
Доп. информация
Adrienne Johnston - Vocals
Mick Moloney - Vocals, Guitar, Banjo & Mandolin
Paul Brady - Vocals, Guitar & Piano
Brian Brocklehurst - Bass
Mal White - Bodhran
The Johnstons - фолк группа, популярная в Ирландии в конце 60-х. Colours Of The Dawn – 5-й альбом в дискографии группы.
Отсутствие в альбоме традиционных фольклорных песен придает ему более современный вид, чем прочим работам группы, хотя акустика и доминирует. Это современный фолк в манере Seekers или British Isles Peter, Paul & Mary. Композиция «Crazy Anne» будет интересна любителям творчества Леонарда Коэна… Лишь дуновение фолк-рока можно услышать в «Brightness, She Came». «Angela Davis» вкладывает историю этого противоречивого политика в рамки ирландской народной песни. «Old Man's Tale» — наиболее традиционная из представленных композиций — впечатляет неожиданным упоминанием о вьетнамской войне…


Трекер:  [ 24-Сен-2012 09:20 ]

  

Скачать .torrent

Размер .torrent файла 18 KB


Размер: 216 MB
Хэш (hash) релиза: 258aefc43bb204c6bd31efb3053c1a733cbd22fb

Еще никто не оставлял запись к записи скачать торрент The Johnstons - Colours Of The Dawn . Будь первым!

!Обратная связь