Скачать через торрент музыку The Rubettes - MTV Music History бесплатно без регистрации torrent

Если у вас наблюдаются проблемы со скриншотами, переходом по ссылками, скачиванием торрентов - проблемы в блокировщике рекламы AdBlock. #хорошегоДня!


Статистика раздачи
Размер:  496 MB   |    Зарегистрирован:  5 лет 2 месяца   |    .torrent скачан:  17 раз   |   
Раздают:  1  
   
Загрузка...
 
Автор Сообщение

Galfimbul

avatar Galfimbul


The Rubettes - MTV Music History

Жанр: Glam Rock, Pop Rock
Страна-производитель диска: Germany
Год издания диска: 2000
Издатель (лейбл): Sony Music/Halahup Records
Номер по каталогу: HAL396
Страна: UK
Аудио кодек: FLAC (*.flac)
Тип рипа: image+.cue
Битрейт аудио: lossless
Продолжительность: 01:19:25
Источник (релизер): Victor
Наличие сканов в содержимом раздачи: да

Треклист:

01. Sugar Baby Love 03:29
02. Juke Box Jive 03:02
03. WIth You 02:18
04. Baby I Know 04:20
05. I Can Do It 03:19
06. Foe-Dee-Oh-Dee 03:00
07. Beggarman 03:37
08. Tonight 03:40
09. Little Darling 03:16
10. You're The Reason Why 02:34
11. Saturday Night 02:19
12. Under One Roof 04:31
13. Julia 02:53
14. The Sha-Na-Na-Na Song 02:54
15. Come On Over 04:03
16. Judy Run Run 03:02
17. Kid Runaway 03:15
18. I'm Just Dreaming 03:08
19. You Could Have Told Me 02:49
20. Dancing In The Rain 02:58
21. Movin' 04:09
22. Lola 03:01
23. My Buddy Holly Days 03:18
24. Let Hime Bleed 04:16
Exact Audio Copy V1.0 beta 1 from 15. November 2010

EAC extraction logfile from 20. September 2012, 0:46

Rubettes / MTV History 2000

Used drive : Optiarc DVD RW AD-5200A Adapter: 1 ID: 0

Read mode : SecureUtilize accurate stream : YesDefeat audio cache : YesMake use of C2 pointers : No

Read offset correction : 48Overread into Lead-In and Lead-Out : YesFill up missing offset samples with silence : YesDelete leading and trailing silent blocks : NoNull samples used in CRC calculations : YesUsed interface : Native Win32 interface for Win NT & 2000

Used output format : Internal WAV RoutinesSample format : 44.100 Hz; 16 Bit; Stereo

TOC of the extracted CD

Track | Start | Length | Start sector | End sector --------------------------------------------------------- 1 | 0:00.00 | 3:29.06 | 0 | 15680 2 | 3:29.06 | 3:02.45 | 15681 | 29375 3 | 6:31.51 | 2:18.52 | 29376 | 39777 4 | 8:50.28 | 4:20.37 | 39778 | 59314 5 | 13:10.65 | 3:19.65 | 59315 | 74304 6 | 16:30.55 | 3:00.36 | 74305 | 87840 7 | 19:31.16 | 3:37.63 | 87841 | 104178 8 | 23:09.04 | 3:40.65 | 104179 | 120743 9 | 26:49.69 | 3:16.62 | 120744 | 135505 10 | 30:06.56 | 2:34.25 | 135506 | 147080 11 | 32:41.06 | 2:19.30 | 147081 | 157535 12 | 35:00.36 | 4:31.30 | 157536 | 177890 13 | 39:31.66 | 2:53.27 | 177891 | 190892 14 | 42:25.18 | 2:54.49 | 190893 | 203991 15 | 45:19.67 | 4:03.50 | 203992 | 222266 16 | 49:23.42 | 3:02.64 | 222267 | 235980 17 | 52:26.31 | 3:15.67 | 235981 | 250672 18 | 55:42.23 | 3:08.60 | 250673 | 264832 19 | 58:51.08 | 2:49.57 | 264833 | 277564 20 | 61:40.65 | 2:58.33 | 277565 | 290947 21 | 64:39.23 | 4:09.33 | 290948 | 309655 22 | 68:48.56 | 3:01.57 | 309656 | 323287 23 | 71:50.38 | 3:18.32 | 323288 | 338169 24 | 75:08.70 | 4:16.30 | 338170 | 357399

Range status and errors

Selected range

Filename C:\MusicBox\Rubettes - MTV History 2000.wav

Peak level 100.0 % Extraction speed 0.2 X Range quality 99.9 % Copy CRC 26ED6C4D Copy finished

No errors occurred

End of status report
REM GENRE RockREM DATE 2000REM DISCID 3D129D18REM COMMENT "ExactAudioCopy v1.0b1"PERFORMER "Rubettes"TITLE "MTV History 2000"FILE "Rubettes - MTV History 2000.flac" WAVE TRACK 01 AUDIO TITLE "Sugar Baby Love" PERFORMER "Rubettes" INDEX 01 00:00:00 TRACK 02 AUDIO TITLE "Juke Box Jive" PERFORMER "Rubettes" INDEX 00 03:27:37 INDEX 01 03:29:06 TRACK 03 AUDIO TITLE "WIth You" PERFORMER "Rubettes" INDEX 00 06:30:41 INDEX 01 06:31:51 TRACK 04 AUDIO TITLE "Baby I Know" PERFORMER "Rubettes" INDEX 00 08:48:28 INDEX 01 08:50:28 TRACK 05 AUDIO TITLE "I Can Do It" PERFORMER "Rubettes" INDEX 00 13:09:70 INDEX 01 13:10:65 TRACK 06 AUDIO TITLE "Foe-Dee-Oh-Dee" PERFORMER "Rubettes" INDEX 00 16:29:66 INDEX 01 16:30:55 TRACK 07 AUDIO TITLE "Beggarman" PERFORMER "Rubettes" INDEX 00 19:30:55 INDEX 01 19:31:16 TRACK 08 AUDIO TITLE "Tonight" PERFORMER "Rubettes" INDEX 00 23:07:04 INDEX 01 23:09:04 TRACK 09 AUDIO TITLE "Little Darling" PERFORMER "Rubettes" INDEX 00 26:49:05 INDEX 01 26:49:69 TRACK 10 AUDIO TITLE "You're The Reason Why" PERFORMER "Rubettes" INDEX 00 30:06:10 INDEX 01 30:06:56 TRACK 11 AUDIO TITLE "Saturday Night" PERFORMER "Rubettes" INDEX 00 32:40:04 INDEX 01 32:41:06 TRACK 12 AUDIO TITLE "Under One Roof" PERFORMER "Rubettes" INDEX 00 34:58:36 INDEX 01 35:00:36 TRACK 13 AUDIO TITLE "Julia" PERFORMER "Rubettes" INDEX 00 39:31:25 INDEX 01 39:31:66 TRACK 14 AUDIO TITLE "The Sha-Na-Na-Na Song" PERFORMER "Rubettes" INDEX 00 42:24:26 INDEX 01 42:25:18 TRACK 15 AUDIO TITLE "Come On Over" PERFORMER "Rubettes" INDEX 00 45:19:03 INDEX 01 45:19:67 TRACK 16 AUDIO TITLE "Judy Run Run" PERFORMER "Rubettes" INDEX 00 49:21:42 INDEX 01 49:23:42 TRACK 17 AUDIO TITLE "Kid Runaway" PERFORMER "Rubettes" INDEX 00 52:25:20 INDEX 01 52:26:31 TRACK 18 AUDIO TITLE "I'm Just Dreaming" PERFORMER "Rubettes" INDEX 00 55:40:23 INDEX 01 55:42:23 TRACK 19 AUDIO TITLE "You Could Have Told Me" PERFORMER "Rubettes" INDEX 00 58:49:08 INDEX 01 58:51:08 TRACK 20 AUDIO TITLE "Dancing In The Rain" PERFORMER "Rubettes" INDEX 00 61:38:65 INDEX 01 61:40:65 TRACK 21 AUDIO TITLE "Movin'" PERFORMER "Rubettes" INDEX 00 64:37:23 INDEX 01 64:39:23 TRACK 22 AUDIO TITLE "Lola" PERFORMER "Rubettes" INDEX 00 68:46:56 INDEX 01 68:48:56 TRACK 23 AUDIO TITLE "My Buddy Holly Days" PERFORMER "Rubettes" INDEX 00 71:48:38 INDEX 01 71:50:38 TRACK 24 AUDIO TITLE "Let Hime Bleed" PERFORMER "Rubettes" INDEX 00 75:06:70 INDEX 01 75:08:70
-----------------------

DON'T MODIFY THIS FILE

-----------------------

PERFORMER: auCDtect Task Manager, ver. 1.5.1RC4 build 1.5.1.5Copyright (c) 2008-2010 y-soft. All rights reservedhttp://y-soft.org

ANALYZER: auCDtect: CD records authenticity detector, version 0.8.2Copyright (c) 2004 Oleg Berngardt. All rights reserved.Copyright (c) 2004 Alexander Djourik. All rights reserved.

FILE: Rubettes - MTV History 2000.flac Size: 509694805 Hash: B5A4A2B5ADEBA92A0D9476AFBA335EEE Accuracy: -m8 Conclusion: CDDA 100% Signature: 60D606619023F083C5271FE5286D53E6566840F2
Доп. информация
Alan Williams - vocals, guitar
John Richardson - drums, vocals
Mick Clarke - bass, vocals
Tony Thorpe - lead guitar, vocals
Pete Arnesen - piano
Bill Hurd - organ, piano
The Rubettes (с 1975 года чаще как Rubettes) — английская поп-группа, собранная осенью 1973 года из 7 сессионных музыкантов Уэйном Брикертоном (главой отдела A&R Polydor) и его партнёром по продюсерско-авторскому дуэту Тони Уоддингтоном для пробных записей нескольких своих новых песен. Окончательно сформированные в начале 1974-го в секстет с 2 клавишниками (с 1975 года в штате остался только один из них) The Rubettes использовали глэм-имидж (костюмы в красно-белой цветовой гамме и стильные белые кепки) и исполняли мелодичный поп-рок с элементами рокабилли. Первый же релиз группы, «Sugar Baby Love», возглавил UK Singles Chart, продержался на вершине хит-парада 5 недель, разошёлся во всём мире более чем 3-миллионным тиражом и остаётся наивысшим коммерческим достижением группы.

The Rubettes, уже превратившиеся в квартет, распались в 1979 году, воссоединялись в 1983 (для выступлений в Германии), а в 2002 году после продолжительной паузы вновь оказались в центре внимания прессы из-за судебной тяжбы между участниками первого состава за права на название группы. В результате появились два (выступающих по сей день) состава: Rubettes feat. Alan Williams (куда, кроме Уильямса, входят также Ричардсон и Кларк вместе с бывшим клавишником The Kinks Марком Хэйли) и Rubettes feat. Bill Hurd (Хёрд с приглашёнными музыкантами).


Трекер:  [ 24-Сен-2012 09:20 ]

  

Скачать .torrent

Размер .torrent файла 20 KB


Размер: 496 MB
Хэш (hash) релиза: 6a7822b028d6e50bcef33c2dff8f912ed0d6bd5c

Еще никто не оставлял запись к записи скачать торрент The Rubettes - MTV Music History . Будь первым!

!Обратная связь