Скачать через торрент музыку Ghiribizzi - Zep Tepi бесплатно без регистрации torrent

Если у вас наблюдаются проблемы со скриншотами, переходом по ссылками, скачиванием торрентов - проблемы в блокировщике рекламы AdBlock. #хорошегоДня!


Статистика раздачи
Размер:  345 MB   |    Зарегистрирован:  4 года 10 месяцев   |    .torrent скачан:  8 раз   |   
Раздают:  1  
   
Загрузка...
 
Автор Сообщение

Galfimbul

avatar Galfimbul


Ghiribizzi - Zep Tepi

Жанр: Neo Progressive
Год выпуска диска: 2001
Страна: Belgium
Label: self-released/Ghiribizzi Music
Catalog Nr.: GH 01
Аудио кодек: FLAC
Тип рипа: image+.cue(test&copy)
Битрейт аудио: lossless
Продолжительность: 45:27
Источник: свой рип


Трэклист:

1. Rock'n roll (4:27)
2. Time (7:07)
3. Life in a cage (4:02)
4. Interludium (1:02)
5. Remains the same (4:41)
6. Cabaret (2:11)
7. Goin' back (6:28)
8. Little children of the world (3:09)
9. Farewell to God (8:30)
10. Melodia subtila (3:40)

Total Time: 45:27

Музыканты

- Dario Frodo / guitars, vocals, backing vocals
- Frank Centauri / keyboards, lead vocals, flute, wind instruments
- Yves Simmah / keyboards, programming, percussion

Об альбоме: Дебютный альбом, ставшего впоследствии весьма известным, коллектива из Бельгии. Материал, представленный в альбоме проигрывает по качеству записи последующим релизам группы. Возникает даже мысль о его демо-предназначении. Однако, в нём прослеживаются темы развитые музыкантами в дальнейшем творчестве.
Exact Audio Copy V1.0 beta 1 from 15. November 2010

EAC extraction logfile from 16. August 2011, 11:55

Ghiribizzi / Zep Tepi

Used drive : ASUS DRW-24B1LT Adapter: 4 ID: 0

Read mode : Secure
Utilize accurate stream : Yes
Defeat audio cache : Yes
Make use of C2 pointers : No

Read offset correction : 6
Overread into Lead-In and Lead-Out : No
Fill up missing offset samples with silence : Yes
Delete leading and trailing silent blocks : No
Null samples used in CRC calculations : Yes
Used interface : Native Win32 interface for Win NT & 2000

Used output format : User Defined Encoder
Selected bitrate : 1024 kBit/s
Quality : High
Add ID3 tag : Yes
Command line compressor : C:\Program Files (x86)\FLAC\flac.exe
Additional command line options : -6 -V -T "ARTIST=%a" -T "TITLE=%t" -T "ALBUM=%g" -T "DATE=%y" -T "TRACKNUMBER=%n" -T "GENRE=%m" -T "COMMENT=%e" %s -o %d

TOC of the extracted CD

Track | Start | Length | Start sector | End sector
---------------------------------------------------------
1 | 0:00.00 | 4:28.73 | 0 | 20172
2 | 4:28.73 | 7:07.40 | 20173 | 52237
3 | 11:36.38 | 4:04.63 | 52238 | 70600
4 | 15:41.26 | 1:03.26 | 70601 | 75351
5 | 16:44.52 | 4:42.26 | 75352 | 96527
6 | 21:27.03 | 2:13.21 | 96528 | 106523
7 | 23:40.24 | 6:32.54 | 106524 | 135977
8 | 30:13.03 | 3:13.13 | 135978 | 150465
9 | 33:26.16 | 8:29.35 | 150466 | 188675
10 | 41:55.51 | 3:34.57 | 188676 | 204782

Range status and errors

Selected range

Filename Y:\EAC\sole-survivor\Ghiribizzi\Ghiribizzi - Zep Tepi (2001)\Ghiribizzi - Zep Tepi.wav

Peak level 99.9 %
Extraction speed 0.6 X
Range quality 100.0 %
Test CRC 2F3B1678
Copy CRC 2F3B1678
Copy OK

No errors occurred

AccurateRip summary

Track 1 not present in database
Track 2 not present in database
Track 3 not present in database
Track 4 not present in database
Track 5 not present in database
Track 6 not present in database
Track 7 not present in database
Track 8 not present in database
Track 9 not present in database
Track 10 not present in database

None of the tracks are present in the AccurateRip database

End of status report
[CUETools log; Date: 20.09.2012 21:33:47; Version: 2.1.4]
[CTDB TOCID: eF2O_CZw6xNeC7awagjtyIBrODk-] disk not present in database.
[AccurateRip ID: 0010ce07-0085b454-7e0aaa0a] found.
Track [ CRC | V2 ] Status
01 [4fd5060f|6be0e807] (0+1/1) Accurately ripped
02 [d68a0a1e|fe8427aa] (0+1/1) Accurately ripped
03 [57587df7|d039fc2c] (0+1/1) Accurately ripped
04 [19fb4a59|83e567d4] (0+1/1) Accurately ripped
05 [7ebcbf5c|46852010] (0+1/1) Accurately ripped
06 [20a7aa53|2663a074] (0+1/1) Accurately ripped
07 [05259c39|564c65c3] (0+1/1) Accurately ripped
08 [15f8ecdd|9a9e8a7e] (0+1/1) Accurately ripped
09 [ea82d645|f1cbedc6] (0+1/1) Accurately ripped
10 [2cfc1ea4|3fecf435] (0+1/1) Accurately ripped

Track Peak [ CRC32 ] [W/O NULL] [ LOG ]
-- 99,9 [2F3B1678] [A9CD5DE8] CRC32
01 99,9 [6BE59FE4] [52A231D0]
02 99,9 [3C63C738] [8672BED3]
03 99,9 [DF132C17] [01DCF6B9]
04 70,6 [AC557216] [A2497BA9]
05 99,9 [3F135B67] [0A83ED0A]
06 99,9 [40D115F9] [FF0A398D]
07 99,9 [C34586FD] [643E4DAD]
08 99,9 [8B2E7706] [14D9F33C]
09 99,9 [EAD833C7] [A752C480]
10 99,9 [19857647] [7E9FB440]


Трекер:  [ 24-Сен-2012 09:19 ]

  

Скачать .torrent

Размер .torrent файла 14 KB


Размер: 345 MB
Хэш (hash) релиза: 4d3a58087f19a4e5c255c29203a437f266caea72

Еще никто не оставлял запись к записи скачать торрент Ghiribizzi - Zep Tepi . Будь первым!

!Обратная связь