Скачать через торрент музыку Streets - 1st, Crimes In Mind - 1983, 1985 бесплатно без регистрации torrent

Если у вас наблюдаются проблемы со скриншотами, переходом по ссылками, скачиванием торрентов - проблемы в блокировщике рекламы AdBlock. #хорошегоДня!


Статистика раздачи
Размер:  506 MB   |    Зарегистрирован:  4 года 10 месяцев   |    .torrent скачан:  10 раз   |   
Раздают:  1  
   
Загрузка...
 
Автор Сообщение

Galfimbul

avatar Galfimbul


Streets - 1st, Crimes In Mind

Жанр: AOR/Melodic Rock
Страна-производитель диска: USA
Год выпуска альбомов: 1983, 1985
Год издания CD: 2002
Издатель (лейбл): Wounded Bird Records
Номер по каталогу: WOU 117, 1246
Страна: USA
Аудиокодек: APE (*.ape)
Тип рипа: image+.cue
Битрейт аудио: lossless
Продолжительность: 37:50, 36:42
Источник (релизер): original CDs
Наличие сканов в содержимом раздачи: да

Треклист 1983 - 1st:

01. If Love Should Go [0:04:10.63]
02. Move On [0:03:50.24]
03. One Way Street [0:04:49.23]
04. Lonely Woman's Cry [0:05:40.60]
05. Everything Is Changing [0:03:12.23]
06. Cold Hearted Woman [0:03:25.48]
07. So Far Away [0:04:02.70]
08. Blue Town [0:03:31.24]
09. Fire [0:05:06.64]

Треклист 1985 - Crimes In Mind:

01. Don't Look Back [0:03:22.42]
02. The Nightmare Begins [0:03:16.21]
03. Broken Glass [0:03:54.41]
04. Hit 'N Run [0:03:08.40]
05. Crimes In Mind [0:03:38.30]
06. I Can't Wait [0:03:46.05]
07. Gun Runner [0:03:44.15]
08. Desiree [0:03:50.58]
09. Rat Race [0:03:27.66]
10. Turn My Head [0:04:33.16]
Exact Audio Copy V1.0 beta 1 from 15. November 2010

Отчёт EAC об извлечении, выполненном 19. сентября 2012, 14:58

Streets / 1st

Дисковод: Optiarc DVD RW AD-7261S Adapter: 1 ID: 1

Режим чтения : ДостоверностьИспользование точного потока : ДаОтключение кэша аудио : ДаИспользование указателей C2 : Нет

Коррекция смещения при чтении : 48Способность читать области Lead-in и Lead-out : НетЗаполнение пропущенных сэмплов тишиной : ДаУдаление блоков с тишиной в начале и конце : НетПри вычислениях CRC использовались нулевые сэмплы : ДаИнтерфейс : Встроенный Win32-интерфейс для Win NT/2000

Выходной формат : Monkey's Audio (без потерь)Выбранный битрейт : Normal Lossless CompressionКачество : ВысокийДобавление ID3-тега : ДаУтилита сжатия : C:\Program Files\Monkey's Audio\MAC.exe

TOC извлечённого CD

Трек | Старт | Длительность | Начальный сектор | Конечный сектор --------------------------------------------------------------------- 1 | 0:00.00 | 4:10.63 | 0 | 18812 2 | 4:10.63 | 3:50.24 | 18813 | 36086 3 | 8:01.12 | 4:49.23 | 36087 | 57784 4 | 12:50.35 | 5:40.60 | 57785 | 83344 5 | 18:31.20 | 3:12.23 | 83345 | 97767 6 | 21:43.43 | 3:25.48 | 97768 | 113190 7 | 25:09.16 | 4:02.70 | 113191 | 131410 8 | 29:12.11 | 3:31.24 | 131411 | 147259 9 | 32:43.35 | 5:06.64 | 147260 | 170273

Характеристики диапазона извлечения и сообщения об ошибках

Выбранный диапазон

Имя файла D:\Downloads\Streets - 1st.wav

Пиковый уровень 98.9 % Скорость извлечения 0.4 X Качество диапазона 99.9 % CRC теста 7D7ACF9A CRC копии 7D7ACF9A Копирование... OK

Ошибок не произошло

Конец отчёта
Exact Audio Copy V1.0 beta 1 from 15. November 2010

Отчёт EAC об извлечении, выполненном 19. сентября 2012, 15:23

Streets / Crimes In Mind

Дисковод: Optiarc DVD RW AD-7261S Adapter: 1 ID: 1

Режим чтения : ДостоверностьИспользование точного потока : ДаОтключение кэша аудио : ДаИспользование указателей C2 : Нет

Коррекция смещения при чтении : 48Способность читать области Lead-in и Lead-out : НетЗаполнение пропущенных сэмплов тишиной : ДаУдаление блоков с тишиной в начале и конце : НетПри вычислениях CRC использовались нулевые сэмплы : ДаИнтерфейс : Встроенный Win32-интерфейс для Win NT/2000

Выходной формат : Monkey's Audio (без потерь)Выбранный битрейт : Normal Lossless CompressionКачество : ВысокийДобавление ID3-тега : ДаУтилита сжатия : C:\Program Files\Monkey's Audio\MAC.exe

TOC извлечённого CD

Трек | Старт | Длительность | Начальный сектор | Конечный сектор --------------------------------------------------------------------- 1 | 0:00.00 | 3:22.42 | 0 | 15191 2 | 3:22.42 | 3:16.21 | 15192 | 29912 3 | 6:38.63 | 3:54.41 | 29913 | 47503 4 | 10:33.29 | 3:08.40 | 47504 | 61643 5 | 13:41.69 | 3:38.30 | 61644 | 78023 6 | 17:20.24 | 3:46.05 | 78024 | 94978 7 | 21:06.29 | 3:44.15 | 94979 | 111793 8 | 24:50.44 | 3:50.58 | 111794 | 129101 9 | 28:41.27 | 3:27.66 | 129102 | 144692 10 | 32:09.18 | 4:33.16 | 144693 | 165183

Характеристики диапазона извлечения и сообщения об ошибках

Выбранный диапазон

Имя файла D:\Downloads\Streets - Crimes In Mind.wav

Пиковый уровень 98.9 % Скорость извлечения 0.4 X Качество диапазона 100.0 % CRC теста A7BF0C47 CRC копии A7BF0C47 Копирование... OK

Ошибок не произошло

Конец отчёта
Steve Walsh vocals, keyboards
Mike Slamer guitars
Billy Greer bass, vocals
Tim Gehrt drums, percussion, vocals


Трекер:  [ 24-Сен-2012 09:17 ]

  

Скачать .torrent

Размер .torrent файла 21 KB


Размер: 506 MB
Хэш (hash) релиза: dfcd7c7f7150a1651286a93f0bc90bb5359cf80b

Еще никто не оставлял запись к записи скачать торрент Streets - 1st, Crimes In Mind - 1983, 1985 . Будь первым!

!Обратная связь