Скачать через торрент музыку Gran Turismo Veloce - Di Carne, Di Anima бесплатно без регистрации torrent

Если у вас наблюдаются проблемы со скриншотами, переходом по ссылками, скачиванием торрентов - проблемы в блокировщике рекламы AdBlock. #хорошегоДня!


Статистика раздачи
Размер:  289 MB   |    Зарегистрирован:  5 лет   |    .torrent скачан:  22 раза   |   
Раздают:  1  
   
Загрузка...
 
Автор Сообщение

Galfimbul

avatar Galfimbul


Gran Turismo Veloce - Di Carne, Di Anima

Жанр: RPI
Год выпуска диска: 2011
Страна: Italy
Label: Lizard Records
Catalog Nr.: CD-0072
Аудио кодек: FLAC
Тип рипа: tracks+.cue (test&copy)
Битрейт аудио: lossless
Продолжительность: 43:44
Источник: chimsyn


Трэклист:

1. Anec Retrorsum (0:22)
2. Sorgente Sonora (4:16)
3. Misera Venere (5:19)
4. Quantocamia (7:36)
5. L'artista (4:30)
6. L'estremo viaggiatore (4:40)
7. La paura (4:55)
8. Misera Venere (reprise) (3:34)
9. L'indice e l'occhio (8:32)

Total Time 43:44

Музыканты:

- Claudio Filippeschi / vocals, keys
- Flavio Timpanaro / bass, backing vocals
- Stefano Magini / drums
- Massimo Dolce / weird ideas, loop programming, guitars

Collaborator:
- Aldo Milani / flute (8)

Об альбоме: Дебютный релиз нового итальянского проекта. Весьма достойный альбом. Желающие уже ознакомились с мп3 версией в соответствующем разделе.
Раздача оформлена с разрешения автора рипа chimsyn, все ваши благодарности адресуются ему. А от меня наилучшие рекомендации к прослушиванию.
GRAN TURISMO VELOCE formed in 2008 in Grosseto, Tuscany. The band's name is a direct homage to the famous Italian sportscar whose popularity spread throughout Europe in the 1970s, and the fact that in those years Italian progressive rock was doing the same. The band takes their influence from those 1970s prog bands and blends it with modern electronic, jazzy rock, and even some metal mood. The released their first EP In un solo brivido and were playing their songs across Italy.

Over the next couple of years the band won awards at music competitions and wowed audiences at Alternativersion, the XIV Festival in Savona, Emergenza contest, and Musicamp near Milan. While working on their first full length album Di Carne, di Anima they caught the attention of Samuele Santanna, frontman of RAVEN SAD. Soon the band was working with Loris Furlan of Lizard Records and their debut was released in the Spring of 2011.

An infectious and exciting pollination of classic RPI and modern attitudes, GRAN TURISMO VELOCE is poised to make a huge splash with a wide variety of progressive rock tastes.
Exact Audio Copy V1.0 beta 3 from 29. August 2011

Отчёт EAC об извлечении, выполненном 16. сентября 2012, 19:36

Gran Turismo Veloce / Di Carne, Di Anima

Дисковод: ASUS DRW-24B3ST Adapter: 3 ID: 1

Режим чтения : Достоверность
Использование точного потока : Да
Отключение кэша аудио : Да
Использование указателей C2 : Нет

Коррекция смещения при чтении : 6
Способность читать области Lead-in и Lead-out : Нет
Заполнение пропущенных сэмплов тишиной : Да
Удаление блоков с тишиной в начале и конце : Нет
При вычислениях CRC использовались нулевые сэмплы : Да
Интерфейс : Встроенный Win32-интерфейс для Win NT/2000
Обработка зазоров : Добавлено к предыдущему треку

Выходной формат : Пользовательский кодировщик
Выбранный битрейт : 128 kBit/s
Качество : Высокий
Добавление ID3-тега : Нет
Утилита сжатия : C:\Program Files (x86)\Exact Audio Copy\FLAC\FLAC.EXE
Дополнительные параметры : -6 -V -T "ARTIST=%artist%" -T "TITLE=%title%" -T "ALBUM=%albumtitle%" -T "DATE=%year%" -T "TRACKNUMBER=%tracknr%" -T "GENRE=%genre%" -T "COMMENT=%comment%" -T "BAND=%albuminterpret%" -T "ALBUMARTIST=%albuminterpret%" -T "COMPOSER=%composer%" %haslyrics%--tag-from-file=LYRICS="%lyricsfile%"%haslyrics% -T "DISCNUMBER=%cdnumber%" -T "TOTALDISCS=%totalcds%" -T "TOTALTRACKS=%numtracks%" %hascover%--picture="%coverfile%"%hascover% %source% -o %dest%

TOC извлечённого CD

Трек | Старт | Длительность | Начальный сектор | Конечный сектор
---------------------------------------------------------------------
1 | 0:00.00 | 0:22.20 | 0 | 1669
2 | 0:22.20 | 4:15.40 | 1670 | 20834
3 | 4:37.60 | 5:19.35 | 20835 | 44794
4 | 9:57.20 | 7:35.61 | 44795 | 78980
5 | 17:33.06 | 4:30.37 | 78981 | 99267
6 | 22:03.43 | 4:40.35 | 99268 | 120302
7 | 26:44.03 | 4:55.09 | 120303 | 142436
8 | 31:39.12 | 3:33.44 | 142437 | 158455
9 | 35:12.56 | 8:32.07 | 158456 | 196862

Трек 1

Имя файла F:\Загрузки\01. Anec retrorsum.wav

Длина предзазора 0:00:02.00

Пиковый уровень 96.9 %
Скорость извлечения 1.2 X
Качество трека 100.0 %
CRC теста 9E576FF5
CRC копии 9E576FF5
Точное извлечение (достоверность 1) [BBA52FBA] (AR v2)
Копирование... OK

Трек 2

Имя файла F:\Загрузки\02. Sorgente sonora.wav

Пиковый уровень 99.5 %
Скорость извлечения 3.6 X
Качество трека 100.0 %
CRC теста 605B5C3A
CRC копии 605B5C3A
Точное извлечение (достоверность 1) [60DB2DED] (AR v2)
Копирование... OK

Трек 3

Имя файла F:\Загрузки\03. Misera Venere.wav

Длина предзазора 0:00:01.42

Пиковый уровень 99.8 %
Скорость извлечения 4.2 X
Качество трека 100.0 %
CRC теста 8197EE18
CRC копии 8197EE18
Точное извлечение (достоверность 1) [41AABE0E] (AR v2)
Копирование... OK

Трек 4

Имя файла F:\Загрузки\04. Quantocamia.wav

Длина предзазора 0:00:02.02

Пиковый уровень 99.9 %
Скорость извлечения 4.3 X
Качество трека 99.9 %
CRC теста 5491180A
CRC копии 5491180A
Точное извлечение (достоверность 1) [79D303EF] (AR v2)
Копирование... OK

Трек 5

Имя файла F:\Загрузки\05. L'artista.wav

Пиковый уровень 99.9 %
Скорость извлечения 5.1 X
Качество трека 100.0 %
CRC теста E97227A0
CRC копии E97227A0
Точное извлечение (достоверность 1) [2AF3F955] (AR v2)
Копирование... OK

Трек 6

Имя файла F:\Загрузки\06. L'estremo viaggiatore.wav

Пиковый уровень 98.8 %
Скорость извлечения 5.4 X
Качество трека 100.0 %
CRC теста CEB6A298
CRC копии CEB6A298
Точное извлечение (достоверность 1) [A04C8C46] (AR v2)
Копирование... OK

Трек 7

Имя файла F:\Загрузки\07. La paura.wav

Длина предзазора 0:00:01.14

Пиковый уровень 98.6 %
Скорость извлечения 4.7 X
Качество трека 99.9 %
CRC теста F9C86D45
CRC копии F9C86D45
Точное извлечение (достоверность 1) [2D500A36] (AR v2)
Копирование... OK

Трек 8

Имя файла F:\Загрузки\08. Misera Venere reprise.wav

Длина предзазора 0:00:01.22

Пиковый уровень 98.8 %
Скорость извлечения 5.7 X
Качество трека 100.0 %
CRC теста 57E04C33
CRC копии 57E04C33
Точное извлечение (достоверность 1) [35A24F57] (AR v2)
Копирование... OK

Трек 9

Имя файла F:\Загрузки\09. L'indice e l'occhio.wav

Длина предзазора 0:00:02.05

Пиковый уровень 100.0 %
Скорость извлечения 6.7 X
Качество трека 100.0 %
CRC теста 64E171EF
CRC копии 64E171EF
Точное извлечение (достоверность 1) [74ED1010] (AR v2)
Копирование... OK

Все треки извлечены точно

Ошибок не произошло

Конец отчёта

==== Контрольная сумма отчёта 5CDD7E7BD2FBBD9E73DF2D6BD4F1BDCFA1F093B937A590C166F02CC62E7EBDEA ====
REM DATE 2011
REM DISCID 670A4009
REM COMMENT "ExactAudioCopy v1.0b3"
PERFORMER "Gran Turismo Veloce"
TITLE "Di Carne, Di Anima"
FILE "01. Anec retrorsum.wav" WAVE
TRACK 01 AUDIO
TITLE "Anec retrorsum"
PERFORMER "Gran Turismo Veloce"
ISRC ITBI91100001
INDEX 01 00:00:00
FILE "02. Sorgente sonora.wav" WAVE
TRACK 02 AUDIO
TITLE "Sorgente sonora"
PERFORMER "Gran Turismo Veloce"
ISRC ITBI91100002
INDEX 01 00:00:00
TRACK 03 AUDIO
TITLE "Misera Venere"
PERFORMER "Gran Turismo Veloce"
ISRC ITBI91100003
INDEX 00 04:13:73
FILE "03. Misera Venere.wav" WAVE
INDEX 01 00:00:00
TRACK 04 AUDIO
TITLE "Quantocamia"
PERFORMER "Gran Turismo Veloce"
ISRC ITBI91100004
INDEX 00 05:17:33
FILE "04. Quantocamia.wav" WAVE
INDEX 01 00:00:00
FILE "05. L'artista.wav" WAVE
TRACK 05 AUDIO
TITLE "L'artista"
PERFORMER "Gran Turismo Veloce"
ISRC ITBI91100005
INDEX 01 00:00:00
FILE "06. L'estremo viaggiatore.wav" WAVE
TRACK 06 AUDIO
TITLE "L'estremo viaggiatore"
PERFORMER "Gran Turismo Veloce"
ISRC ITBI91100006
INDEX 01 00:00:00
TRACK 07 AUDIO
TITLE "La paura"
PERFORMER "Gran Turismo Veloce"
ISRC ITBI91100007
INDEX 00 04:39:21
FILE "07. La paura.wav" WAVE
INDEX 01 00:00:00
TRACK 08 AUDIO
TITLE "Misera Venere reprise"
PERFORMER "Gran Turismo Veloce"
ISRC ITBI91100008
INDEX 00 04:53:62
FILE "08. Misera Venere reprise.wav" WAVE
INDEX 01 00:00:00
TRACK 09 AUDIO
TITLE "L'indice e l'occhio"
PERFORMER "Gran Turismo Veloce"
ISRC ITBI91100009
INDEX 00 03:31:39
FILE "09. L'indice e l'occhio.wav" WAVE
INDEX 01 00:00:00
Коврики 600dpi в комплекте.
Progarchives info

Трекер:  [ 24-Сен-2012 08:53 ]

  

Скачать .torrent

Размер .torrent файла 12 KB


Размер: 289 MB
Хэш (hash) релиза: 7030f09e1eb19c7fffa6698ca988db5e2112a54a

Еще никто не оставлял запись к записи скачать торрент Gran Turismo Veloce - Di Carne, Di Anima . Будь первым!

!Обратная связь