Скачать через торрент музыку Innerspace - The Village бесплатно без регистрации torrent

Если у вас наблюдаются проблемы со скриншотами, переходом по ссылками, скачиванием торрентов - проблемы в блокировщике рекламы AdBlock. #хорошегоДня!


Статистика раздачи
Размер:  335 MB   |    Зарегистрирован:  4 года 10 месяцев   |    .torrent скачан:  9 раз   |   
Раздают:  1  
   
Загрузка...
 
Автор Сообщение

Galfimbul

avatar Galfimbul


Innerspace - The Village
Жанр: Crossover progressive
Год выпуска диска: 2012
Страна: Canada
Label: self-release
Catalog Nr.: No
Аудио кодек: FLAC
Тип рипа: image+.cue (test&copy)
Битрейт аудио: lossless
Продолжительность: 54:35

Источник: hyperborea70

Трэклист:

1. Intro (1:30)
2. Land of Hope (3:22)
3. Wild Flower (11:42)
4. Mister Mayor (7:37)
5. Old Wreck (5:15)
6. Slippery Case - Part I (8:23)
7. Slippery Case - Part II (5:53)
8. Jack (4:10)
9. On a Ride (2:14)
10. Land of Reason (4:29)

Total time 54:35

Музыканты

- Phil Burton / guitars, vocals
- Simon Arsenault / guitars
- Paul Aubry / keyboards
- Thomas Sauvé / drums

Об альбоме: Дебютный альбом весьма интересной канадской группы. В меру меланхоличный добротный кроссовер-прог.
Рип сделан и разрешён к раздаче hyperborea70. Все благодарности адресуются ему.
Exact Audio Copy V1.0 beta 3 from 29. August 2011

Отчёт EAC об извлечении, выполненном 18. сентября 2012, 19:49

Innerspace - The Village

Дисковод: Optiarc DVD RW AD-7203A Adapter: 0 ID: 1

Режим чтения : Достоверность
Использование точного потока : Да
Отключение кэша аудио : Да
Использование указателей C2 : Нет

Коррекция смещения при чтении : 48
Способность читать области Lead-in и Lead-out : Нет
Заполнение пропущенных сэмплов тишиной : Да
Удаление блоков с тишиной в начале и конце : Нет
При вычислениях CRC использовались нулевые сэмплы : Да
Интерфейс : Встроенный Win32-интерфейс для Win NT/2000

Выходной формат : Внутренние WAV-операции
Формат сэмплов : 44.100 Гц; 16 бит; стерео

TOC извлечённого CD

Трек | Старт | Длительность | Начальный сектор | Конечный сектор
---------------------------------------------------------------------
1 | 0:00.00 | 1:31.11 | 0 | 6835
2 | 1:31.11 | 3:24.43 | 6836 | 22178
3 | 4:55.54 | 11:45.10 | 22179 | 75063
4 | 16:40.64 | 7:40.72 | 75064 | 109635
5 | 24:21.61 | 5:23.20 | 109636 | 133880
6 | 29:45.06 | 8:23.13 | 133881 | 171618
7 | 38:08.19 | 5:56.67 | 171619 | 198385
8 | 44:05.11 | 4:10.38 | 198386 | 217173
9 | 48:15.49 | 2:14.33 | 217174 | 227256
10 | 50:30.07 | 4:29.51 | 227257 | 247482

Характеристики диапазона извлечения и сообщения об ошибках

Выбранный диапазон

Имя файла F:\Загрузки\Innerspace - The Village.wav

Пиковый уровень 98.8 %
Скорость извлечения 2.4 X
Качество диапазона 99.9 %
CRC теста 1CD60B15
CRC копии 1CD60B15
Копирование... OK

Ошибок не произошло

AccurateRip: сводка

Трек 1 отсутствует в базе данных
Трек 2 отсутствует в базе данных
Трек 3 отсутствует в базе данных
Трек 4 отсутствует в базе данных
Трек 5 отсутствует в базе данных
Трек 6 отсутствует в базе данных
Трек 7 отсутствует в базе данных
Трек 8 отсутствует в базе данных
Трек 9 отсутствует в базе данных
Трек 10 отсутствует в базе данных

Ни одного трека нет в базе AccurateRip

Конец отчёта
Started at: wednesday, 19. 09. 2012. - 21:37.20
1 file found

1 -===- N:\Music\Reserve\Innerspace - The Village (2012)\Innerspace - The Village.flac
Extracted successfully
Conclusion: this track is CDDA with probability 100%
Tempfile successfully deleted.

Finished at: wednesday, 19. 09. 2012. - 21:40.18 (operation time: 0:02.57)
Коврики 300dpi в комплекте.
Progarchives info
Oficial website

Трекер:  [ 24-Сен-2012 08:53 ]

  

Скачать .torrent

Размер .torrent файла 14 KB


Размер: 335 MB
Хэш (hash) релиза: 9137b0c8f8e230d159626b7b2f5b1e8e7bf1876f

Еще никто не оставлял запись к записи скачать торрент Innerspace - The Village . Будь первым!

!Обратная связь