Скачать через торрент музыку Marchello - The Magic Comes Alive бесплатно без регистрации torrent

Если у вас наблюдаются проблемы со скриншотами, переходом по ссылками, скачиванием торрентов - проблемы в блокировщике рекламы AdBlock. #хорошегоДня!


Статистика раздачи
Размер:  381 MB   |    Зарегистрирован:  4 года 11 месяцев   |    .torrent скачан:  36 раз   |   
Раздают:  1  
   
Загрузка...
 
Автор Сообщение

Galfimbul

avatar Galfimbul


Marchello ~ The Magic Comes Alive (Remastered 2012)
Жанр: Hard Rock
Страна-производитель диска: USA
Год издания: 1992/2012
Издатель (лейбл): AOR HEAVEN
Номер по каталогу: AOR HEAVEN CLASSIC 0021
Страна: USA
Аудиокодек: APE (*.ape)
Тип рипа: image+.cue
Битрейт аудио: lossless
Продолжительность: 54:25
Источник (релизер): Собственный рип с оригинального диска
Наличие сканов в содержимом раздачи: да
Треклист:
1. The Magic Comes Alive
2. Boys Night Out
3. Every Mans Lover
4. Wall Of Paper
5. The Power Of Money
6. Rock Me
7. All Gods Angels
8. Good Girls
9. Sleazy Street
10. Euphoria
11. Dancers
12. Riot
13. I Feel Good
14. Spitting Image
Виртуоз-гитарист со своим вторым по счёту неиздававшимся альбомом. Альбом полный драйва, прекрасных тем, присущих 90-м, наряду с замечательным вокалом, делает альбом настолько сильным, что его хочется слушать и слушать!!! Ну и Вам приятного прослушивания, уважаемые!
Porrit & Co. налетайте на неворованное!!!
Exact Audio Copy V0.99 prebeta 5 from 4. May 2009

EAC extraction logfile from 15. September 2012, 21:37

Marchello / The Magic Comes Alive

Used drive : HL-DT-STDVDRAM GH24LS70 Adapter: 1 ID: 1

Read mode : SecureUtilize accurate stream : YesDefeat audio cache : YesMake use of C2 pointers : No

Read offset correction : 667Overread into Lead-In and Lead-Out : NoFill up missing offset samples with silence : YesDelete leading and trailing silent blocks : NoNull samples used in CRC calculations : YesUsed interface : Installed external ASPI interface

Used output format : Internal WAV RoutinesSample format : 44.100 Hz; 16 Bit; Stereo

TOC of the extracted CD

Track | Start | Length | Start sector | End sector --------------------------------------------------------- 1 | 0:00.00 | 4:53.02 | 0 | 21976 2 | 4:53.02 | 3:21.29 | 21977 | 37080 3 | 8:14.31 | 3:34.48 | 37081 | 53178 4 | 11:49.04 | 4:52.38 | 53179 | 75116 5 | 16:41.42 | 3:42.69 | 75117 | 91835 6 | 20:24.36 | 3:49.33 | 91836 | 109043 7 | 24:13.69 | 4:23.61 | 109044 | 128829 8 | 28:37.55 | 2:52.39 | 128830 | 141768 9 | 31:30.19 | 3:29.44 | 141769 | 157487 10 | 34:59.63 | 4:45.29 | 157488 | 178891 11 | 39:45.17 | 3:45.52 | 178892 | 195818 12 | 43:30.69 | 4:36.29 | 195819 | 216547 13 | 48:07.23 | 3:47.14 | 216548 | 233586 14 | 51:54.37 | 2:31.24 | 233587 | 244935

Range status and errors

Selected range

Filename E:\Marchello - The Magic Comes Alive 1992 (2012)\The Magic Comes Alive.wav

Peak level 100.0 % Range quality 100.0 % Copy CRC 96078A19 Copy OK

No errors occurred

End of status report
Gene Marchello (All Guitars, Lead and Backing Vocals)
Nick DiMichino (Bass, Backing Vocals)
Gary Bivona (Keyboards, Backing Vocals)
John Miceli (Drums)


Трекер:  [ 19-Сен-2012 15:46 ]

  

Скачать .torrent

Размер .torrent файла 16 KB


Размер: 381 MB
Хэш (hash) релиза: e83675125734da50fd4dc7f5231854e087db4512

Торренты, похожие на Marchello - The Magic Comes Alive скачать торрент

Форум Название Автор Размер S L Добавлен
Зарубежный Rock ·· (Hard Rock) Marchello - The Magic Comes Alive (Remastered 2012) - 1992/2012, MP3, 320 kbps Umakiro 130658897125 MB 0 0 1347638340

18:59

14-Сен-12

Еще никто не оставлял запись к записи скачать торрент Marchello - The Magic Comes Alive . Будь первым!

!Обратная связь