Скачать через торрент музыку 10cc - Greatest Hits of 10cc бесплатно без регистрации torrent

Если у вас наблюдаются проблемы со скриншотами, переходом по ссылками, скачиванием торрентов - проблемы в блокировщике рекламы AdBlock. #хорошегоДня!


Статистика раздачи
Размер:  450 MB   |    Зарегистрирован:  5 лет 1 месяц   |    .torrent скачан:  25 раз   |   
Раздают:  1  
   
Загрузка...
 
Автор Сообщение

Galfimbul

avatar Galfimbul


10cc / Greatest Hits of 10cc

Жанр: Rock
Страна-производитель диска: Australia
Год издания: 1989
Издатель (лейбл): Possum Records
Номер по каталогу: BPCD 5123
Страна: UK
Аудиокодек: FLAC (*.flac)
Тип рипа: image+.cue
Битрейт аудио: lossless
Продолжительность: 72.13
Источник (релизер): Stripakulina
Наличие сканов в содержимом раздачи: да, TIFF 600 DPI.

Треклист:
Sheet Music - 1974
01. The Wall Street Shuffle (3:53)
02. The Worst Band In The World (2:48)
03. Hotel (4:53)
04. Old Wild Men (3:20)
05. Clockwork Creep (2:44)
06. Silly Love (4:00)
07. Somewhere In Hollywood (6:38)
08. Baron Samedi (3:45)
09. The Sacro-iliac (2:32)
10. Oh Effendi (2:51)
10cc - 1973
11. Johnny Don't Do It (3:38)
12. Sand In My Face (3:39)
13. Donna (2:56)
14. The Dean And I (3:05)
15. Headline Hustler (3:33)
16. Speed Kills (3:50)
17. Rubber Bullets (5:15)
18. The Hospital Song (2:43)
19. Ships Don't Just Disappear In The Night (Do They?) (3:06)
20. Fresh Air For My Momma (3:04)
Exact Audio Copy V1.0 beta 3 from 29. August 2011

Отчёт EAC об извлечении, выполненном 17. сентября 2012, 1:48

10cc / The Greatest Hits Of 10cc

Дисковод: PLEXTOR CD-R PREMIUM2 Adapter: 0 ID: 0

Режим чтения : ДостоверностьИспользование точного потока : ДаОтключение кэша аудио : ДаИспользование указателей C2 : Нет

Коррекция смещения при чтении : 30Способность читать области Lead-in и Lead-out : ДаЗаполнение пропущенных сэмплов тишиной : ДаУдаление блоков с тишиной в начале и конце : НетПри вычислениях CRC использовались нулевые сэмплы : ДаИнтерфейс : Встроенный Win32-интерфейс для Win NT/2000

Выходной формат : Внутренние WAV-операцииФормат сэмплов : 44.100 Гц; 16 бит; стерео

TOC извлечённого CD

Трек | Старт | Длительность | Начальный сектор | Конечный сектор --------------------------------------------------------------------- 1 | 0:00.00 | 3:53.37 | 0 | 17511 2 | 3:53.37 | 2:47.63 | 17512 | 30099 3 | 6:41.25 | 4:53.20 | 30100 | 52094 4 | 11:34.45 | 3:20.15 | 52095 | 67109 5 | 14:54.60 | 2:44.22 | 67110 | 79431 6 | 17:39.07 | 4:00.18 | 79432 | 97449 7 | 21:39.25 | 6:38.00 | 97450 | 127299 8 | 28:17.25 | 3:45.00 | 127300 | 144174 9 | 32:02.25 | 2:32.00 | 144175 | 155574 10 | 34:34.25 | 2:51.00 | 155575 | 168399 11 | 37:25.25 | 3:38.00 | 168400 | 184749 12 | 41:03.25 | 3:39.25 | 184750 | 201199 13 | 44:42.50 | 2:55.45 | 201200 | 214369 14 | 47:38.20 | 3:04.55 | 214370 | 228224 15 | 50:43.00 | 3:32.50 | 228225 | 244174 16 | 54:15.50 | 3:49.42 | 244175 | 261391 17 | 58:05.17 | 5:14.65 | 261392 | 285006 18 | 63:20.07 | 2:42.43 | 285007 | 297199 19 | 66:02.50 | 3:06.07 | 297200 | 311156 20 | 69:08.57 | 3:03.68 | 311157 | 324949

Характеристики диапазона извлечения и сообщения об ошибках

Выбранный диапазон

Имя файла F:\For http://рутраскер\10cc - Greatest Hits Of 10cc [Australia BPCD 5123] - 1989\10cc - The Greatest Hits Of 10cc.wav

Пиковый уровень 100.0 % Скорость извлечения 6.5 X Качество диапазона 99.9 % CRC теста B9DE8A76 CRC копии B9DE8A76 Копирование... OK

Ошибок не произошло

AccurateRip: сводка

Трек 1 : извлечено точно (доверие 4) [CB86A2C8] (AR v1)Трек 2 : извлечено точно (доверие 4) [6B232B6D] (AR v1)Трек 3 : извлечено точно (доверие 4) [F82F7CC8] (AR v1)Трек 4 : извлечено точно (доверие 4) [1512154A] (AR v1)Трек 5 : извлечено точно (доверие 4) [D7C21533] (AR v1)Трек 6 : извлечено точно (доверие 4) [6E35FEFC] (AR v1)Трек 7 : извлечено точно (доверие 4) [2B490535] (AR v1)Трек 8 : извлечено точно (доверие 4) [1CD14AC7] (AR v1)Трек 9 : извлечено точно (доверие 4) [D30D9A47] (AR v1)Трек 10 : извлечено точно (доверие 4) [E4638F2D] (AR v1)Трек 11 : извлечено точно (доверие 4) [3B146B2F] (AR v1)Трек 12 : извлечено точно (доверие 4) [23D0F8D0] (AR v1)Трек 13 : извлечено точно (доверие 4) [30DAA9E8] (AR v1)Трек 14 : извлечено точно (доверие 4) [AFA440EE] (AR v1)Трек 15 : извлечено точно (доверие 4) [9E8D8DF5] (AR v1)Трек 16 : извлечено точно (доверие 4) [9BD6404F] (AR v1)Трек 17 : извлечено точно (доверие 4) [7C88D81B] (AR v1)Трек 18 : извлечено точно (доверие 4) [3D7AD9B1] (AR v1)Трек 19 : извлечено точно (доверие 4) [8BD06419] (AR v1)Трек 20 : извлечено точно (доверие 4) [D35BC39C] (AR v1)

Все треки извлечены точно

Конец отчёта

---- CUETools DB Plugin V2.1.4

[CTDB TOCID: UwSx3P2NmyxV_z0.H31tiHstCns-] foundSubmit result: already submittedTrack | CTDB Status 1 | (2/2) Accurately ripped 2 | (2/2) Accurately ripped 3 | (2/2) Accurately ripped 4 | (2/2) Accurately ripped 5 | (2/2) Accurately ripped 6 | (2/2) Accurately ripped 7 | (2/2) Accurately ripped 8 | (2/2) Accurately ripped 9 | (2/2) Accurately ripped 10 | (2/2) Accurately ripped 11 | (2/2) Accurately ripped 12 | (2/2) Accurately ripped 13 | (2/2) Accurately ripped 14 | (2/2) Accurately ripped 15 | (2/2) Accurately ripped 16 | (2/2) Accurately ripped 17 | (2/2) Accurately ripped 18 | (2/2) Accurately ripped 19 | (2/2) Accurately ripped 20 | (2/2) Accurately ripped

==== Контрольная сумма отчёта B3061B398C50BC59A8743BC1B67678BD0CB619BB61953924AD8CC00A03D2EAA3 ====
Доп. информация: На самом деле это не сборник, а два первых альбома. Что побудило издателя записать их не в хронологическом порядке, сейчас сказать сложно.
Возможно это чисто коммерческий ход. Покупатель в магазине первой слушал хит The Wall Street Shuffle.
Цифровой мастеринг - Steve Hoffman.

Трекер:  [ 19-Сен-2012 15:46 ]

  

Скачать .torrent

Размер .torrent файла 18 KB


Размер: 450 MB
Хэш (hash) релиза: ea274b421a8ad72363885fe5f992fe28621d2e2e

Еще никто не оставлял запись к записи скачать торрент 10cc - Greatest Hits of 10cc . Будь первым!

!Обратная связь