Скачать через торрент музыку Asakusa Jinta - Fes! Fes! Fes! - 2007, APE бесплатно без регистрации torrent

Если у вас наблюдаются проблемы со скриншотами, переходом по ссылками, скачиванием торрентов - проблемы в блокировщике рекламы AdBlock. #хорошегоДня!


Статистика раздачи
Размер:  115 MB   |    Зарегистрирован:  4 года 11 месяцев   |    .torrent скачан:  12 раз   |   
Раздают:  1  
   
Загрузка...
 
Автор Сообщение

Galfimbul

avatar Galfimbul


Asakusa Jinta / Fes! Fes! Fes!

Жанр: ska, japanese, japan, psychobilly
Страна-производитель диска: Япония
Год издания: 2007
Издатель (лейбл): ?
Номер по каталогу: AJNT-0001
Страна: Япония
Аудиокодек: APE (*.ape)
Тип рипа: image+.cue
Битрейт аудио: lossless
Продолжительность: 15'28
Источник (релизер): Рип с оригинального cd из своей коллекции
Наличие сканов в содержимом раздачи: да
Треклист:
1. Fes! Fes! Fes!
2. Rock on The Rock
3. Rock on The Rock -.dead drunkaк
4. Rakuyo
5. Fes! Fes! Fes! - marching
Exact Audio Copy V0.99 prebeta 5 from 4. May 2009

Отчёт EAC об извлечении, выполненном 16. сентября 2012, 18:25

Asakusa Jinta / Fes! Fes! Fes!

Дисковод: ASUS DRW-24B3LT Adapter: 3 ID: 0

Режим чтения : ДостоверностьИспользование точного потока : ДаОтключение кэша аудио : ДаИспользование указателей C2 : Нет

Коррекция смещения при чтении : 6Способность читать области Lead-in и Lead-out : НетЗаполнение пропущенных сэмплов тишиной : ДаУдаление блоков с тишиной в начале и конце : НетПри вычислениях CRC использовались нулевые сэмплы : ДаИнтерфейс : Встроенный Win32-интерфейс для Win NT/2000

Выходной формат : Внутренние WAV-операцииФормат сэмплов : 44.100 Гц; 16 бит; стерео

TOC извлечённого CD

Трек | Старт | Длительность | Начальный сектор | Конечный сектор --------------------------------------------------------------------- 1 | 0:00.00 | 3:13.66 | 0 | 14540 2 | 3:13.66 | 3:31.42 | 14541 | 30407 3 | 6:45.33 | 1:04.24 | 30408 | 35231 4 | 7:49.57 | 5:12.42 | 35232 | 58673 5 | 13:02.24 | 2:26.36 | 58674 | 69659

Характеристики диапазона извлечения и сообщения об ошибках

Выбранный диапазон

Имя файла D:\Раздачи\Asakusa Jinta-Fes! Fes! Fes! (Mini Album)\Asakusa Jinta - Fes! Fes! Fes!.wav

Пиковый уровень 99.9 % Качество диапазона 99.9 % CRC теста 1E592B5A CRC копии 1E592B5A Копирование... OK

Ошибок не произошло

AccurateRip: сводка

Трек 1 нет в базе данныхТрек 2 нет в базе данныхТрек 3 нет в базе данныхТрек 4 нет в базе данныхТрек 5 нет в базе данных

Ни одного трека нет в базе AccurateRip

Конец отчёта
Mini Album


Трекер:  [ 19-Сен-2012 15:46 ]

  

Скачать .torrent

Размер .torrent файла 19 KB


Размер: 115 MB
Хэш (hash) релиза: 251cdd7939418612c06c2656c59b52cb0e1b9cf2

Еще никто не оставлял запись к записи скачать торрент Asakusa Jinta - Fes! Fes! Fes! - 2007, APE . Будь первым!

!Обратная связь