Скачать через торрент музыку Faithful Breath - Коллекция бесплатно без регистрации torrent

Если у вас наблюдаются проблемы со скриншотами, переходом по ссылками, скачиванием торрентов - проблемы в блокировщике рекламы AdBlock. #хорошегоДня!


Статистика раздачи
Размер:  2.35 GB   |    Зарегистрирован:  4 года 11 месяцев   |    .torrent скачан:  27 раз   |   
Раздают:  1  
   
Загрузка...
 
Автор Сообщение

Galfimbul

avatar Galfimbul


Lossless Group представляет:Faithful Breath
КоллекцияСтрана: Германия
Страна-производитель диска: США, Германия
Жанр: Progressive/Space/Kraut Rock, Hard Rock, Heavy Metal
Год выпуска: 1973-2012
Аудио кодек: FLAC (*.flac)
Тип рипа: image+.cue
Битрейт аудио: lossless
Продолжительность: 7 CD
Источник (релизер): hexonut [Lossless Group, http://рутраскер]. Все рипы с оригинальных дисков из личной коллекции.
Метод рипа: EAC test+copy
Комплектация: Для каждого диска: FLAC со встроенным cue, отдельные cue для wav и flac, .toc file для cdrdao, полный набор сканов, логи.

Доп. информация: Группа Faithful Breath выступала с конца 60х годов, в 70х они играли прог-краут-рок. Fading Beauty - один из двух их альбомов в этом качестве. Первая сторона альбома - инструментальная "осенняя фантазия" в двух частях, всю вторую сторону занимает одна песня. Альбом был переиздан в 1991 году на прогрессивном лейбле The Laser's Edge. Второй прог-альбом вышел в 1980 году, два первых альбома были переизданы в 2005-2007 годах на немецкой фирме Garden of Delights.

В 80х годах они сменили стиль на хард-н-хеви и имидж на потешных викингов. Выпустив в этом качестве несколько студийных альбомов и концертник, они переименовались в Risk и стали играть спид-пауэр метал с прогрессивными элементами.

Издания:
Fading Beauty - 1991 Lasers Edge, 2005 Garden of Delights
Back On My Hill - 2007 Garden of Delights
Rock Lions / Hard Breath - 2012 Sirenia, два-в-одном.
Gold'N'Glory - Насколько я знаю, официально на одиночном CD не издавался. Вероятнее всего бутлег, но оформлен очень качественно.
Skol - 1985 Ambush Records
Back On My Hill / Live - 2007 Бутлег. Известный, включен в дискографию, напечатанную в буклете к Back On My Hill.

Отсутствуют, из того что издавалось на CD (будет дополнено если достану):
Double Thing - 1986 Steamhammer (Gold'N'Glory + Skol на одном диске)
Остальные альбомы и синглы группы издавались только на виниле.
Трэклист:
01. Fading Beauty (12:09)
02. Lingering Gold (10:25)
03. Tharsis (21:44)
Exact Audio Copy V0.99 prebeta 5 from 4. May 2009

EAC extraction logfile from 1. December 2010, 22:05

Faithful Breath / Fading Beauty

Used drive : LITE-ON DVDRW LH-20A1L Adapter: 4 ID: 0

Read mode : SecureUtilize accurate stream : YesDefeat audio cache : YesMake use of C2 pointers : No

Read offset correction : 6Overread into Lead-In and Lead-Out : NoFill up missing offset samples with silence : YesDelete leading and trailing silent blocks : NoNull samples used in CRC calculations : YesUsed interface : Installed external ASPI interface

Used output format : Internal WAV RoutinesSample format : 44.100 Hz; 16 Bit; Stereo

TOC of the extracted CD

Track | Start | Length | Start sector | End sector --------------------------------------------------------- 1 | 0:00.00 | 12:10.00 | 0 | 54749 2 | 12:10.00 | 10:29.70 | 54750 | 101994 3 | 22:39.70 | 21:38.18 | 101995 | 199362

Range status and errors

Selected range

Filename Z:\data\mp3\Seeding\Faithful Breath\1973-Fading Beauty\Fading Beauty.wav

Peak level 51.6 % Range quality 99.9 % Test CRC F857FDCE Copy CRC F857FDCE Copy OK

No errors occurred

AccurateRip summary

Track 1 accurately ripped (confidence 2) [EB03626A]Track 2 accurately ripped (confidence 2) [A2292F49]Track 3 accurately ripped (confidence 2) [70AEDBC4]

All tracks accurately ripped

End of status report
01. Autumn Fantasia (22:40)
02. Tharsis (21:38)
Exact Audio Copy V1.0 beta 1 from 15. November 2010

EAC extraction logfile from 1. March 2011, 12:51

Faithful Breath / Fading Beauty

Used drive : TSSTcorpCDRWDVD TS-H492C Adapter: 0 ID: 0

Read mode : SecureUtilize accurate stream : YesDefeat audio cache : YesMake use of C2 pointers : No

Read offset correction : 6Overread into Lead-In and Lead-Out : NoFill up missing offset samples with silence : YesDelete leading and trailing silent blocks : NoNull samples used in CRC calculations : YesUsed interface : Native Win32 interface for Win NT & 2000

Used output format : User Defined EncoderSelected bitrate : 768 kBit/sQuality : HighAdd ID3 tag : NoCommand line compressor : C:\Program Files\Exact Audio Copy\FLAC\FLAC.EXEAdditional command line options : --best -V -T "ARTIST=%a" -T "TITLE=%t" -T "ALBUM=%g" -T "DATE=%y" -T "TRACKNUMBER=%n" -T "GENRE=%m" -T "COMMENT=%e" %j--picture="%i"%j %s -o %d

TOC of the extracted CD

Track | Start | Length | Start sector | End sector --------------------------------------------------------- 1 | 0:00.00 | 22:39.70 | 0 | 101994 2 | 22:39.70 | 21:38.18 | 101995 | 199362

Range status and errors

Selected range

Filename C:\TEMP\Faithful Breath - Fading Beauty Reissue\Fading Beauty.wav

Peak level 51.6 % Extraction speed 4.0 X Range quality 99.9 % Test CRC 321D92E2 Copy CRC 321D92E2 Copy OK

No errors occurred

AccurateRip summary

Track 1 accurately ripped (confidence 1) [3DB7B1F9]Track 2 accurately ripped (confidence 1) [6679C51F]

All tracks accurately ripped

End of status report
01. Back On My Hill (05:41)
02. Keep Me Away (04:03)
03. This Is My Love Song (03:01)
04. Stick In Your Eyes (04:54)
05. Judgement Day (16:59)
06. Die Mörderbiene (06:11)
Exact Audio Copy V0.99 prebeta 5 from 4. May 2009

EAC extraction logfile from 1. December 2010, 23:21

Faithful Breath / Back on my Hill

Used drive : LITE-ON DVDRW LH-20A1L Adapter: 4 ID: 0

Read mode : SecureUtilize accurate stream : YesDefeat audio cache : YesMake use of C2 pointers : No

Read offset correction : 6Overread into Lead-In and Lead-Out : NoFill up missing offset samples with silence : YesDelete leading and trailing silent blocks : NoNull samples used in CRC calculations : YesUsed interface : Installed external ASPI interface

Used output format : Internal WAV RoutinesSample format : 44.100 Hz; 16 Bit; Stereo

TOC of the extracted CD

Track | Start | Length | Start sector | End sector --------------------------------------------------------- 1 | 0:00.30 | 5:40.10 | 30 | 25539 2 | 5:40.40 | 4:02.65 | 25540 | 43754 3 | 9:43.30 | 3:00.57 | 43755 | 57311 4 | 12:44.12 | 4:54.19 | 57312 | 79380 5 | 17:38.31 | 16:59.34 | 79381 | 155839 6 | 34:37.65 | 6:10.38 | 155840 | 183627

Range status and errors

Selected range

Filename Z:\data\mp3\Seeding\Faithful Breath\1980-Back On My Hill\Back on my Hill.wav

Peak level 100.0 % Range quality 100.0 % Test CRC C840C5B9 Copy CRC C840C5B9 Copy OK

No errors occurred

AccurateRip summary

Track 1 accurately ripped (confidence 2) [3280B378]Track 2 accurately ripped (confidence 2) [0E9E4A05]Track 3 accurately ripped (confidence 2) [660EF075]Track 4 accurately ripped (confidence 2) [74DC8B76]Track 5 accurately ripped (confidence 2) [B0E25424]Track 6 accurately ripped (confidence 2) [CE100369]

All tracks accurately ripped

End of status report
01. Don't feel hate (03:43)
02. King of the rock (03:18)
03. Jailbreaker (03:28)
04. A million hearts (04:56)
05. Gold'n'glory (04:17)
06. Play the game (03:40)
07. Princess in desguise (04:14)
08. Don't drive me mad (02:36)
Exact Audio Copy V0.99 prebeta 5 from 4. May 2009

EAC extraction logfile from 1. December 2010, 23:42

Faithful Breath / Gold'N'Glory

Used drive : LITE-ON DVDRW LH-20A1L Adapter: 4 ID: 0

Read mode : SecureUtilize accurate stream : YesDefeat audio cache : YesMake use of C2 pointers : No

Read offset correction : 6Overread into Lead-In and Lead-Out : NoFill up missing offset samples with silence : YesDelete leading and trailing silent blocks : NoNull samples used in CRC calculations : YesUsed interface : Installed external ASPI interface

Used output format : Internal WAV RoutinesSample format : 44.100 Hz; 16 Bit; Stereo

TOC of the extracted CD

Track | Start | Length | Start sector | End sector --------------------------------------------------------- 1 | 0:00.00 | 3:45.19 | 0 | 16893 2 | 3:45.19 | 3:17.57 | 16894 | 31725 3 | 7:03.01 | 3:27.52 | 31726 | 47302 4 | 10:30.53 | 4:56.22 | 47303 | 69524 5 | 15:27.00 | 4:17.36 | 69525 | 88835 6 | 19:44.36 | 3:40.28 | 88836 | 105363 7 | 23:24.64 | 4:13.53 | 105364 | 124391 8 | 27:38.42 | 2:33.66 | 124392 | 135932

Range status and errors

Selected range

Filename Z:\data\mp3\Seeding\Faithful Breath\1984-Gold'N'Glory\Gold'N'Glory.wav

Peak level 100.0 % Range quality 99.9 % Test CRC EF05766B Copy CRC EF05766B Copy OK

No errors occurred

AccurateRip summary

Track 1 accurately ripped (confidence 1) [98060677]Track 2 accurately ripped (confidence 1) [A78D8211]Track 3 accurately ripped (confidence 1) [DFC51E13]Track 4 accurately ripped (confidence 1) [A7450CF8]Track 5 accurately ripped (confidence 1) [53D46F7F]Track 6 accurately ripped (confidence 1) [97D4312B]Track 7 accurately ripped (confidence 1) [51C0F899]Track 8 accurately ripped (confidence 1) [820684B4]

All tracks accurately ripped

End of status report
01. Start It Up (04:03)
02. Double Dealer (03:34)
03. Lady M. (02:30)
04. Rock Rebels (03:48)
05. We Want You (05:00)
06. Inside Out (03:38)
07. Crazy In Metal (04:05)
08. Backstreat Heroes (03:35)
09. Skol (04:42)
Exact Audio Copy V0.99 prebeta 5 from 4. May 2009

EAC extraction logfile from 1. December 2010, 22:29

Faithful Breath / Skol

Used drive : LITE-ON DVDRW LH-20A1L Adapter: 4 ID: 0

Read mode : SecureUtilize accurate stream : YesDefeat audio cache : YesMake use of C2 pointers : No

Read offset correction : 6Overread into Lead-In and Lead-Out : NoFill up missing offset samples with silence : YesDelete leading and trailing silent blocks : NoNull samples used in CRC calculations : YesUsed interface : Installed external ASPI interface

Used output format : Internal WAV RoutinesSample format : 44.100 Hz; 16 Bit; Stereo

TOC of the extracted CD

Track | Start | Length | Start sector | End sector --------------------------------------------------------- 1 | 0:00.33 | 4:02.42 | 33 | 18224 2 | 4:03.00 | 3:34.15 | 18225 | 34289 3 | 7:37.15 | 2:30.10 | 34290 | 45549 4 | 10:07.25 | 3:47.48 | 45550 | 62622 5 | 13:54.73 | 5:01.60 | 62623 | 85257 6 | 18:56.58 | 3:36.62 | 85258 | 101519 7 | 22:33.45 | 4:05.25 | 101520 | 119919 8 | 26:38.70 | 3:35.15 | 119920 | 136059 9 | 30:14.10 | 4:42.00 | 136060 | 157209

Range status and errors

Selected range

Filename Z:\data\mp3\Seeding\Faithful Breath\1985-Skol\Skol.wav

Peak level 93.7 % Range quality 100.0 % Test CRC 2DB70E34 Copy CRC 2DB70E34 Copy OK

No errors occurred

AccurateRip summary

Track 1 accurately ripped (confidence 2) [60A02627]Track 2 accurately ripped (confidence 2) [61B2EFF7]Track 3 not present in databaseTrack 4 accurately ripped (confidence 2) [EFCBD5B5]Track 5 accurately ripped (confidence 2) [293C6A8C]Track 6 accurately ripped (confidence 2) [0923EAD8]Track 7 not present in databaseTrack 8 accurately ripped (confidence 2) [EC197186]Track 9 accurately ripped (confidence 2) [3C0EDF20]

7 track(s) accurately ripped 2 track(s) not present in the AccurateRip database

Some tracks could not be verified as accurate

End of status report
01. Back On My Hill (05:32)
02. Keep Me Away (03:57)
03. This Is My Love Song (02:56)
04. Stick In Your Eyes (04:37)
05. Judgement Day (16:37)
06. Bacchu Ber (Intro) (01:44)
07. Gold N'Glory (04:15)
08. Warriors (03:33)
09. Like An Eagle In The Sky (04:05)
10. Princess In Disguise (06:21)
11. A Million Hearts (05:43)
12. Herrmann Feature (01:35)
13. Jailbreaker (03:34)
14. Play The Game (04:00)
15. King Of The Rock (04:04)
Exact Audio Copy V0.99 prebeta 5 from 4. May 2009

EAC extraction logfile from 1. December 2010, 21:52

Faithful Breath / Back On My Hill - Live

Used drive : LITE-ON DVDRW LH-20A1L Adapter: 4 ID: 0

Read mode : SecureUtilize accurate stream : YesDefeat audio cache : YesMake use of C2 pointers : No

Read offset correction : 6Overread into Lead-In and Lead-Out : NoFill up missing offset samples with silence : YesDelete leading and trailing silent blocks : NoNull samples used in CRC calculations : YesUsed interface : Installed external ASPI interface

Used output format : Internal WAV RoutinesSample format : 44.100 Hz; 16 Bit; Stereo

TOC of the extracted CD

Track | Start | Length | Start sector | End sector --------------------------------------------------------- 1 | 0:00.00 | 5:33.69 | 0 | 25043 2 | 5:33.69 | 3:56.66 | 25044 | 42809 3 | 9:30.60 | 2:56.00 | 42810 | 56009 4 | 12:26.60 | 4:37.34 | 56010 | 76818 5 | 17:04.19 | 16:37.34 | 76819 | 151627 6 | 33:41.53 | 1:43.45 | 151628 | 159397 7 | 35:25.23 | 4:15.00 | 159398 | 178522 8 | 39:40.23 | 3:33.10 | 178523 | 194507 9 | 43:13.33 | 4:04.58 | 194508 | 212865 10 | 47:18.16 | 6:21.14 | 212866 | 241454 11 | 53:39.30 | 5:43.28 | 241455 | 267207 12 | 59:22.58 | 1:34.66 | 267208 | 274323 13 | 60:57.49 | 3:33.60 | 274324 | 290358 14 | 64:31.34 | 4:00.25 | 290359 | 308383 15 | 68:31.59 | 4:01.44 | 308384 | 326502

Range status and errors

Selected range

Filename Z:\data\mp3\Seeding\Faithful Breath\1986-Back On My Hill - Live\Back On My Hill - Live.wav

Peak level 75.3 % Range quality 99.9 % Test CRC 0B526562 Copy CRC 0B526562 Copy OK

No errors occurred

AccurateRip summary

Track 1 not present in databaseTrack 2 not present in databaseTrack 3 not present in databaseTrack 4 not present in databaseTrack 5 not present in databaseTrack 6 not present in databaseTrack 7 not present in databaseTrack 8 not present in databaseTrack 9 not present in databaseTrack 10 not present in databaseTrack 11 not present in databaseTrack 12 not present in databaseTrack 13 not present in databaseTrack 14 not present in databaseTrack 15 not present in database

None of the tracks are present in the AccurateRip database

End of status report
01. Rock Lions - Hurricane (03:20)
02. Better Times (05:12)
03. Rock City (04:03)
04. Rolling Into Our Lives (04:37)
05. Down, Down (04:17)
06. Never Be Like You (05:31)
07. No Time (03:59)
08. Rock 'n Roll Women (04:35)
09. Hard Breath - Killers On The Loose (03:06)
10. Give Me What I Need (03:13)
11. Already Too Late (03:25)
12. Dark Angel (03:48)
13. Under My Wheels (03:11)
14. Kids, We Want The World (04:04)
15. Illusions (00:41)
16. Like An Eagle In The Sky (03:38)
17. Warriors (03:25)
18. Riding To Mongolia (02:50)
19. Fly To Another Star (04:19)
20. Night Comes Again (04:56)
Exact Audio Copy V1.0 beta 3 from 29. August 2011

EAC extraction logfile from 9. September 2012, 17:22

Faithful Breath / Rock Lions - Hard Breath

Used drive : LITE-ON DVDRW LH-20A1L Adapter: 3 ID: 0

Read mode : SecureUtilize accurate stream : YesDefeat audio cache : YesMake use of C2 pointers : No

Read offset correction : 6Overread into Lead-In and Lead-Out : NoFill up missing offset samples with silence : YesDelete leading and trailing silent blocks : NoNull samples used in CRC calculations : YesUsed interface : Installed external ASPI interface

Used output format : Internal WAV RoutinesSample format : 44.100 Hz; 16 Bit; Stereo

TOC of the extracted CD

Track | Start | Length | Start sector | End sector --------------------------------------------------------- 1 | 0:00.00 | 3:21.69 | 0 | 15143 2 | 3:21.69 | 5:11.42 | 15144 | 38510 3 | 8:33.36 | 4:02.42 | 38511 | 56702 4 | 12:36.03 | 4:36.72 | 56703 | 77474 5 | 17:13.00 | 4:17.11 | 77475 | 96760 6 | 21:30.11 | 5:30.60 | 96761 | 121570 7 | 27:00.71 | 3:58.47 | 121571 | 139467 8 | 30:59.43 | 4:34.52 | 139468 | 160069 9 | 35:34.20 | 3:06.20 | 160070 | 174039 10 | 38:40.40 | 3:13.26 | 174040 | 188540 11 | 41:53.66 | 3:24.63 | 188541 | 203903 12 | 45:18.54 | 3:47.58 | 203904 | 220986 13 | 49:06.37 | 3:11.06 | 220987 | 235317 14 | 52:17.43 | 4:03.47 | 235318 | 253589 15 | 56:21.15 | 0:41.34 | 253590 | 256698 16 | 57:02.49 | 3:37.46 | 256699 | 273019 17 | 60:40.20 | 3:24.53 | 273020 | 288372 18 | 64:04.73 | 2:49.58 | 288373 | 301105 19 | 66:54.56 | 4:19.30 | 301106 | 320560 20 | 71:14.11 | 4:54.23 | 320561 | 342633

Range status and errors

Selected range

Filename J:\Seeding Archive\Faithful Breath\2012-Rock Lions - Hard Breath\Rock Lions - Hard Breath.wav

Peak level 99.9 % Extraction speed 9.3 X Range quality 100.0 % Test CRC E54D37CE Copy CRC E54D37CE Copy OK

No errors occurred

AccurateRip summary

Track 1 not present in databaseTrack 2 not present in databaseTrack 3 not present in databaseTrack 4 not present in databaseTrack 5 not present in databaseTrack 6 not present in databaseTrack 7 not present in databaseTrack 8 not present in databaseTrack 9 not present in databaseTrack 10 not present in databaseTrack 11 not present in databaseTrack 12 not present in databaseTrack 13 not present in databaseTrack 14 not present in databaseTrack 15 not present in databaseTrack 16 not present in databaseTrack 17 not present in databaseTrack 18 not present in databaseTrack 19 not present in databaseTrack 20 not present in database

None of the tracks are present in the AccurateRip database

End of status report

==== Log checksum 0193AB300FAD7D0D0EDC127D2B895CF5B150941D6407A00AD937D3C949903E78 ====


Трекер:  [ 19-Сен-2012 15:44 ]

  

Скачать .torrent

Размер .torrent файла 102 KB


Размер: 2.35 GB
Хэш (hash) релиза: 4883b9c9b6e402bb3177a5727660e1818d1e4145

Еще никто не оставлял запись к записи скачать торрент Faithful Breath - Коллекция . Будь первым!

!Обратная связь