Скачать через торрент Сверхъестественное Supernatural The Animation бесплатно Аниме Все серии на русском torrent

Если у вас наблюдаются проблемы со скриншотами, переходом по ссылками, скачиванием торрентов - проблемы в блокировщике рекламы AdBlock. #хорошегоДня!


Статистика раздачи
Размер:  10.12 GB   |    Зарегистрирован:  5 лет   |    .torrent скачан:  46 раз   |   
Раздают:  1  
   
Загрузка...
 
Автор Сообщение

Galfimbul

avatar Galfimbul


Сверхъестественное / Supernatural The Animation

Страна: Япония
Год выпуска: 2011 г.
Жанр: триллер, мистика
Тип: OVA
Продолжительность: 22 эп, по 25 мин.
Режиссер: Мия Сигэюки
Описание: Сериал рассказывает о двух братьях Винчестерах: Сэме и Дине , которые путешествуют по стране в поисках своего пропавшего отца. Основными их развлечениями, по мере развития сюжета сериала, является истреблении всякой-разной нечисти на своем пути.

Качество: BDRip
Тип релиза: Без хардсаба
Формат видео: MKV
Наличие линковки: Нет
Видео: H264, 1280х720, 5 367 Kbps, 23.976 fps, 8bit
Аудио 1: AC-3, 192 Kbps, 48.0 KHz, 2 ch Язык Японский ; Оригинал
Аудио 2: DTS, 1510 Kbps, 48.0 KHz, 6 ch Язык Английский ; English DUB
Субтитры: Русские, в составе контейнера; Перевод 1: [Firegorn Team]
Субтитры: Английские, в составе контейнера; Перевод 2: [English - US - SDH]
GeneralFormat : MatroskaFormat version : Version 2File size : 1.12 GiBDuration : 22mn 46sOverall bit rate : 7 069 KbpsEncoded date : UTC 2012-09-14 19:20:16Writing application : mkvmerge v2.9.7 ('Tenderness') built on Jul 1 2009 18:43:35Writing library : libebml v0.7.7 + libmatroska v0.8.1Attachment : Imported font from untouchables-supernatural.the.anime.series.s01e02.720p.ass / Imported font from untouchables-supernatural.the.anime.series.s01e02.720p.ass / Imported font from untouchables-supernatural.the.anime.series.s01e02.720p.ass

VideoID : 1Format : AVCFormat/Info : Advanced Video CodecFormat profile : <a href="mailto:High@L4.1Format" class="postLink">High@L4.1Format</a> settings, CABAC : YesFormat settings, ReFrames : 5 framesCodec ID : V_MPEG4/ISO/AVCDuration : 22mn 46sBit rate : 5 367 KbpsWidth : 1 280 pixelsHeight : 720 pixelsDisplay aspect ratio : 16:9Frame rate mode : ConstantFrame rate : 23.976 fpsColor space : YUVChroma subsampling : 4:2:0Bit depth : 8 bitsScan type : ProgressiveBits/(Pixel*Frame) : 0.243Stream size : 851 MiB (74%)Writing library : x264 core 116 r2057 0ba8a9cEncoding settings : cabac=1 / ref=5 / deblock=1:-1:-1 / analyse=0x3:0x112 / me=umh / subme=7 / psy=1 / psy_rd=1.00:0.00 / mixed_ref=1 / me_range=16 / chroma_me=1 / trellis=1 / 8x8dct=1 / cqm=0 / deadzone=21,11 / fast_pskip=0 / chroma_qp_offset=-2 / threads=12 / sliced_threads=0 / nr=0 / decimate=1 / interlaced=0 / bluray_compat=0 / constrained_intra=0 / bframes=3 / b_pyramid=2 / b_adapt=2 / b_bias=0 / direct=1 / weightb=1 / open_gop=0 / weightp=2 / keyint=250 / keyint_min=23 / scenecut=40 / intra_refresh=0 / rc_lookahead=40 / rc=2pass / mbtree=1 / bitrate=5367 / ratetol=1.0 / qcomp=0.60 / qpmin=0 / qpmax=69 / qpstep=4 / cplxblur=20.0 / qblur=0.5 / ip_ratio=1.40 / aq=1:1.00Language : EnglishDefault : YesForced : No

Audio #1ID : 2Format : AC-3Format/Info : Audio Coding 3Format profile : Dolby DigitalMode extension : CM (complete main)Format settings, Endianness : BigCodec ID : A_AC3Duration : 22mn 46sBit rate mode : ConstantBit rate : 192 KbpsChannel(s) : 2 channelsChannel positions : Front: L RSampling rate : 48.0 KHzBit depth : 16 bitsCompression mode : LossyStream size : 31.3 MiB (3%)Title : OriginalLanguage : JapaneseDefault : YesForced : No

Audio #2ID : 3Format : DTSFormat/Info : Digital Theater SystemsCodec ID : A_DTSDuration : 22mn 46sBit rate mode : ConstantBit rate : 1 510 KbpsChannel(s) : 6 channelsChannel positions : Front: L C R, Side: L R, LFESampling rate : 48.0 KHzBit depth : 16 bitsCompression mode : LossyDelay relative to video : 11msStream size : 246 MiB (21%)Title : English DUBLanguage : EnglishDefault : NoForced : No

Text #1ID : 4Format : ASSCodec ID : S_TEXT/ASSCodec ID/Info : Advanced Sub Station AlphaCompression mode : LosslessTitle : [Firegorn Team]Language : RussianDefault : YesForced : No

Text #2ID : 5Format : UTF-8Codec ID : S_TEXT/UTF8Codec ID/Info : UTF-8 Plain TextTitle : [English - US - SDH]Default : NoForced : No
1 - Альтер Эго
2 - Убийство на дороге
3 - Дом
4 - Призрак шоссе
5 - Жажда крови
6 - Пока смерть не разлучит нас
7 - Демон-искуситель


Трекер:  [ 23-Сен-2012 10:32 ]

  

Скачать .torrent

Размер .torrent файла 26 KB


Размер: 10.12 GB
Хэш (hash) релиза: eeaf71462800d87498888fbfc2ae5ac86b689cf5
Подписка на обновления:

Еще никто не оставлял запись к записи скачать торрент Сверхъестественное Supernatural The Animation . Будь первым!

!Обратная связь