Скачать через торрент музыку Last Autumns Dream - Дискография 2003-2011 бесплатно без регистрации torrent

Если у вас наблюдаются проблемы со скриншотами, переходом по ссылками, скачиванием торрентов - проблемы в блокировщике рекламы AdBlock. #хорошегоДня!


Статистика раздачи
Размер:  5.71 GB   |    Зарегистрирован:  4 года 11 месяцев   |    .torrent скачан:  30 раз   |   
Раздают:  1  
   
Загрузка...
 
Автор Сообщение

Galfimbul

avatar Galfimbul




Японская Дискография

Жанр: Melodic Hard Rock/AOR
Страна-производитель дисков: Japan
Годы издания: 2003-2011
Издатель (лейбл): Avalon Marquee
Страна: Sweden
Аудиокодек: FLAC (*.flac)
Тип рипа: image+.cue
Битрейт аудио: lossless
Продолжительность: 10 часов 45 минут
Источник: собственные рипы с личных CD
Наличие сканов в содержимом раздачи: да
Уроженец Гетеборга Микаэль Эрландссон пришел в шоу-бизнес еще в конце 70-х, в 90-х взялся за запись сольников и поработал на сопровождении у Тины Тернер и Брайана Ферри, а в 2003-м принял участие в Евровидении и засветился в проекте "Radioactive". Когда все эти этапы были пройдены, у его выпускающего лейбла появилась идея создать тандем с гитаристом немецкой банды "Fair Warning" Энди Малесеком. Обоим музыкантам задумка понравилась, и они тут же приступили к работе над совместным альбомом. Недостающие кадровые звенья восполнили "европейцы" Ян Хогланд, Мик Михаэли и Джон Левен, а новорожденный проект получил имя "Last Autumn's Dream". Дебютник "LAD", появившийся в продаже в 2004 году, унаследовал традиции скандинавского мелодик-рока, хотя Малесек, конечно же, привнес свой собственный стиль, как в манере исполнения, так и в написании песен.
Вскоре после выхода диска Ян, Мик и Джон отбыли заниматься возрождением "Europe", а образовавшиеся вакансии заняли басист Марсель Якоб ("Talisman"), ударник Джейми Боргер ("Talisman", "Treat") и клавишник Томас Лассар ("Crystal Blue"). Вторая пластинка, скромно озаглавленная "II" в композиторском плане мало отличалась от дебюта, однако саунд-продюс сильно подкачал, за что на головы "LAD" обрушилась лавина критики.
Лассар после "двойки" ушел, а группа продолжила работу в виде квартета. Учтя ошибки предыдущих сессий, "Last Autumn's Dream" уделили повышенное внимание качеству звука и один за другим выкатили два добротных альбома, "Winter In Paradise" и "Saturn Skyline". Любители мелодик-рока могли найти на этих пластинках все что им нужно: и драйвовые номера типа "Love To Go", "It's Alright", "Pages", "Critical", и более спокойные, но крепко сбитые вещи вроде "Winter In Paradise" и "Supersonic", и песни в духе "Queen" ("Echoes From The Past", "Rock'N'Roll Is Saving My Soul"), и шикарные медляки "If You're The One" и "Still On The Run".
Потрудившись на славу, музыканты решили что в их багаже уже достаточно шлягеров, чтобы состряпать первый хит-сборник, и специально для японского рынка выпустили диск "Impressions: The Very Best Of LAD". Тем же летом 2007-го "Last Autumn's Dream" провели в Стране Восходящего Солнца успешный тур, а в сентябре выступили на германском фестивале "United Forces Of Rock", составив компанию таким монстрам как Джо Линн Тернер, Стэн Буш, "White Wolf", "Soul Doctor" и "Danger Danger".
В 2008-м "The Very Best" стал доступен и в Европе, причем его двухдисковый вариант был дополнен концертником "Live In Germany". Однако музыканты вовсе не стремились эксплуатировать прошлые заслуги и уже в феврале 2008-го представили на суд публики свежий материал – пластинку "Hunting Shadows". И хотя работа содержала ряд достаточно интересных номеров ("I'm Not Supposed To Love You Anymore", "Strange Operation", "Serenity"), критики начали пенять "Last Autumn's Dream" за самоповторы и предсказуемость. Впрочем, команду, казалось, вовсе не смущали эти возгласы недовольства, и музыканты продолжали трудиться в избранном направлении, продемонстрировав верность идеалам на диске "Dreamcatcher".
К сожалению, данная работа стала последней для Марселя Якоба, скончавшегося в возрасте 45 лет 21 июля 2009 года. Однако даже смерть товарища не смогла остановить разогнавшуюся мелодик-роковую машину "Last Autumn's Dream", которая в начале 2010-го вернулась с программой "A Touch Of Heaven", посвященной памяти ушедшего басиста. Место покойного Якоба на этом альбоме занял Налле Пальссон ("Treat", "Zan Clan", "Vindictiv", "Therion"), а в качестве именитого гостя на одном из треков засветился Джефф Скотт Сото.
Источник: hardrockcafe
Продолжительность: 53:08

Треклист:
1. Again And Again - 5:44
2. Pictures Of Love (Fair Warning cover) (bonus track) - 4:59
3. Guardian Angel - 4:53
4. Break The Chains (of destiny) - 5:13
5. Blink Of The Eye - 4:11
6. Talk To Me - 4:52
7. The One - 4:37
8. I Never Let You Go - 5:15
9. High Up - 5:11
10. Movin' On - 3:43
11. Going Home - 4:30

Состав группы:
Mikael Erlandsson (Radioactive, Salute) - lead and backing vocals
Andy Malecek (Fair Warning) - guitars
Mic Michaeli (Europe, Brazen Abbot) - keyboards
John Levin (Europe, Brazen Abbot, Clockwise) - bass
Ian Haughland (Europe, Brazen Abbot, Clockwise) - drums

Гости:
Tommy Denander - harmony guitars on "Going Home"
Pierre Wensberg - backing vocals on all tracks
Rick Brightman - backing vocals on tracks 4, 5, 9, 10
Magnus Weidenmo - backing vocals on track 2
Jenny Miina - backing vocals on track 2
Exact Audio Copy V1.0 beta 3 from 29. August 2011

EAC extraction logfile from 31. May 2012, 21:54

Last Autumn's Dream / Last Autumn's Dream

Used drive : SlimtypeDVD A DS8A5SH Adapter: 0 ID: 1

Read mode : SecureUtilize accurate stream : YesDefeat audio cache : YesMake use of C2 pointers : No

Read offset correction : 6Overread into Lead-In and Lead-Out : NoFill up missing offset samples with silence : YesDelete leading and trailing silent blocks : NoNull samples used in CRC calculations : YesUsed interface : Native Win32 interface for Win NT & 2000

Used output format : User Defined EncoderSelected bitrate : 320 kBit/sQuality : HighAdd ID3 tag : NoCommand line compressor : C:\Program Files (x86)\Exact Audio Copy\Flac\flac.exeAdditional command line options : -V -8 -T "Date=%year%" -T "Genre=%genre%" %source%

TOC of the extracted CD

Track | Start | Length | Start sector | End sector --------------------------------------------------------- 1 | 0:00.00 | 5:44.01 | 0 | 25800 2 | 5:44.01 | 4:59.59 | 25801 | 48284 3 | 10:43.60 | 4:53.71 | 48285 | 70330 4 | 15:37.56 | 5:13.55 | 70331 | 93860 5 | 20:51.36 | 4:11.72 | 93861 | 112757 6 | 25:03.33 | 4:52.40 | 112758 | 134697 7 | 29:55.73 | 4:37.65 | 134698 | 155537 8 | 34:33.63 | 5:15.04 | 155538 | 179166 9 | 39:48.67 | 5:11.60 | 179167 | 202551 10 | 45:00.52 | 3:43.13 | 202552 | 219289 11 | 48:43.65 | 4:29.40 | 219290 | 239504

Range status and errors

Selected range

Filename D:\My Music\Last Autumn's Dream (lossless discography)\Last Autumn's Dream - 2003 Last Autumn's Dream\Last Autumn's Dream - Last Autumn's Dream.wav

Peak level 98.8 % Extraction speed 4.6 X Range quality 100.0 % Test CRC E02E6B21 Copy CRC E02E6B21 Copy OK

No errors occurred

AccurateRip summary

Track 1 not present in databaseTrack 2 not present in databaseTrack 3 not present in databaseTrack 4 not present in databaseTrack 5 not present in databaseTrack 6 not present in databaseTrack 7 not present in databaseTrack 8 not present in databaseTrack 9 not present in databaseTrack 10 not present in databaseTrack 11 not present in database

None of the tracks are present in the AccurateRip database

End of status report

==== Log checksum 0AC3BF5735707BB6AE888FD3D914E5785314B48BF60D8B2C558685E4328E0E2C ====
Продолжительность: 57:34

Треклист:
1. Fire With Fire (bonus track) - 5:33
2. Up In Paradis - 4:29
3. Keep Falling - 4:38
4. Running - 4:16
5. (Always Be) You And I - 4:06
6. Heat Of Emotion (Fair Warning cover) - 3:08
7. Helpless - 3:23
8. Over & Out - 2:59
9. So Much Love In The World - 3:56
10. Lost In You - 3:34
11. This Gotta Be Love - 4:35
12. Round & Round - 3:35
13. Brand New Life - 5:12
14. A Place To Hide In Town - 4:10

Состав группы:
Mikael Erlandsson - lead and backing vocals
Andy Malecek - guitars
Marcel Jacob (Yngwie Malmsteen, Talisman, Humanimal) - bass
Jamie Borger (Talisman, Treat) - drums
Thomas Lassar (Crystal Blue) - keyboards

Гостевые музыканты:
Ulf Wahlberg - keyboards
Pierre Wensberg - backing vocals
Rick Brightman - backing vocals
Exact Audio Copy V1.0 beta 3 from 29. August 2011

EAC extraction logfile from 8. June 2012, 21:34

Last Autumn's Dream / Last Autumn's Dream II

Used drive : SlimtypeDVD A DS8A5SH Adapter: 0 ID: 1

Read mode : SecureUtilize accurate stream : YesDefeat audio cache : YesMake use of C2 pointers : No

Read offset correction : 6Overread into Lead-In and Lead-Out : NoFill up missing offset samples with silence : YesDelete leading and trailing silent blocks : NoNull samples used in CRC calculations : YesUsed interface : Native Win32 interface for Win NT & 2000

Used output format : User Defined EncoderSelected bitrate : 320 kBit/sQuality : HighAdd ID3 tag : NoCommand line compressor : C:\Program Files (x86)\Exact Audio Copy\Flac\flac.exeAdditional command line options : -V -8 -T "Date=%year%" -T "Genre=%genre%" %source%

TOC of the extracted CD

Track | Start | Length | Start sector | End sector --------------------------------------------------------- 1 | 0:00.00 | 5:33.06 | 0 | 24980 2 | 5:33.06 | 4:29.41 | 24981 | 45196 3 | 10:02.47 | 4:38.38 | 45197 | 66084 4 | 14:41.10 | 4:16.74 | 66085 | 85358 5 | 18:58.09 | 4:06.73 | 85359 | 103881 6 | 23:05.07 | 3:08.10 | 103882 | 117991 7 | 26:13.17 | 3:23.49 | 117992 | 133265 8 | 29:36.66 | 2:59.10 | 133266 | 146700 9 | 32:36.01 | 3:56.44 | 146701 | 164444 10 | 36:32.45 | 3:34.23 | 164445 | 180517 11 | 40:06.68 | 4:35.02 | 180518 | 201144 12 | 44:41.70 | 3:35.67 | 201145 | 217336 13 | 48:17.62 | 5:12.12 | 217337 | 240748 14 | 53:29.74 | 4:09.57 | 240749 | 259480

Range status and errors

Selected range

Filename D:\My Music\Last Autumn's Dream (lossless discography)\Last Autumn's Dream - 2004 Last Autumn's Dream II\Last Autumn's Dream - Last Autumn's Dream II.wav

Peak level 100.0 % Extraction speed 4.7 X Range quality 100.0 % Test CRC 5545D6B7 Copy CRC 5545D6B7 Copy OK

No errors occurred

AccurateRip summary

Track 1 not present in databaseTrack 2 not present in databaseTrack 3 not present in databaseTrack 4 not present in databaseTrack 5 not present in databaseTrack 6 not present in databaseTrack 7 not present in databaseTrack 8 not present in databaseTrack 9 not present in databaseTrack 10 not present in databaseTrack 11 not present in databaseTrack 12 not present in databaseTrack 13 not present in databaseTrack 14 not present in database

None of the tracks are present in the AccurateRip database

End of status report

==== Log checksum ADD11E95E817D88931BB4EBC4554C352250E93BF0FFA759527DCB82E2254FA2B ====
Продолжительность: 43:10

Треклист:
1. Love To Go - 3:55
2. Don't Let Our Love Go Down - 3:53
3. The Way You Smile - 3:40
4. It's Alright (bonus track for Japan) - 3:54
5. My Heart Keeps Stalling - 4:05
6. Echoes From The Past - 3:17
7. Winter In Paradise - 4:01
8. I Don't Want To Hurt You - 3:48
9. All I Want Is Rock N' Roll - 3:33
10. If You're The One - 4:53
11. 'Till The End Of Time (bonus track for Japan) - 4:11

Состав группы:
Mikael Erlandsson - lead vocals & keyboards
Andy Malecek - guitars
Marcel Jacob - bass & rhythm guitars
Jamie Borger - drums

Гостевые музыканты:
Joel Strander, Torbjorn Wasennius - additional instruments
Exact Audio Copy V1.0 beta 3 from 29. August 2011

EAC extraction logfile from 8. June 2012, 22:08

Last Autumn's Dream / Winter In Paradise

Used drive : SlimtypeDVD A DS8A5SH Adapter: 0 ID: 1

Read mode : SecureUtilize accurate stream : YesDefeat audio cache : YesMake use of C2 pointers : No

Read offset correction : 6Overread into Lead-In and Lead-Out : NoFill up missing offset samples with silence : YesDelete leading and trailing silent blocks : NoNull samples used in CRC calculations : YesUsed interface : Native Win32 interface for Win NT & 2000

Used output format : User Defined EncoderSelected bitrate : 320 kBit/sQuality : HighAdd ID3 tag : NoCommand line compressor : C:\Program Files (x86)\Exact Audio Copy\Flac\flac.exeAdditional command line options : -V -8 -T "Date=%year%" -T "Genre=%genre%" %source%

TOC of the extracted CD

Track | Start | Length | Start sector | End sector --------------------------------------------------------- 1 | 0:00.00 | 3:55.48 | 0 | 17672 2 | 3:55.48 | 3:53.55 | 17673 | 35202 3 | 7:49.28 | 3:40.57 | 35203 | 51759 4 | 11:30.10 | 3:54.73 | 51760 | 69382 5 | 15:25.08 | 4:05.05 | 69383 | 87762 6 | 19:30.13 | 3:17.27 | 87763 | 102564 7 | 22:47.40 | 4:01.10 | 102565 | 120649 8 | 26:48.50 | 3:48.70 | 120650 | 137819 9 | 30:37.45 | 3:33.32 | 137820 | 153826 10 | 34:11.02 | 4:53.74 | 153827 | 175875 11 | 39:05.01 | 4:11.34 | 175876 | 194734

Range status and errors

Selected range

Filename D:\My Music\Last Autumn's Dream (lossless discography)\Last Autumn's Dream - 2005 Winter In Paradise\Last Autumn's Dream - Winter In Paradise.wav

Peak level 98.8 % Extraction speed 4.1 X Range quality 100.0 % Test CRC 466E9505 Copy CRC 466E9505 Copy OK

No errors occurred

AccurateRip summary

Track 1 accurately ripped (confidence 4) [934DDB5F] (AR v1)Track 2 accurately ripped (confidence 4) [1459EC98] (AR v1)Track 3 accurately ripped (confidence 4) [A0E7E0DA] (AR v1)Track 4 accurately ripped (confidence 4) [366ACF7B] (AR v1)Track 5 accurately ripped (confidence 4) [F2D855B1] (AR v1)Track 6 accurately ripped (confidence 4) [ABA69F24] (AR v1)Track 7 accurately ripped (confidence 4) [ADBADF39] (AR v1)Track 8 accurately ripped (confidence 4) [DB467C0E] (AR v1)Track 9 accurately ripped (confidence 4) [C9E9E85D] (AR v1)Track 10 accurately ripped (confidence 4) [D1E3519C] (AR v1)Track 11 accurately ripped (confidence 4) [6A3C5B07] (AR v1)

All tracks accurately ripped

End of status report

==== Log checksum CB73A3DEB75A2851E3A6B9280015B94ADE449B8A339EB63103A117B753C81484 ====
Продолжительность: 53:14

Треклист:
1. For The Young And The Wild - 3:39
2. After Tomorrow's Gone - 3:50
3. Pages - 4:12
4. Rock'n Roll Is Saving My Soul - 5:15
5. I Know A Lot About Love - 4:18
6. Critical - 5:14
7. Supersonic - 4:11
8. Frozen Heart - 4:27
9. American Girl - 4:00
10. Domino - 3:49
11. Still On The Run - 5:20
12. Skyscraper (bonus track) - 4:55

Состав группы:
Mikael Erlandsson - lead vocals & keyboards
Andy Malecek - guitars
Marcel Jacob - bass & rhythm guitars
Jamie Borger - drums

Гостевые музыканты:
Joel Strander, Torbjorn Wasennius - additional instruments
Exact Audio Copy V1.0 beta 3 from 29. August 2011

EAC extraction logfile from 9. July 2012, 23:58

Last Autumn's Dream / Saturn Skyline

Used drive : SlimtypeDVD A DS8A5SH Adapter: 0 ID: 1

Read mode : SecureUtilize accurate stream : YesDefeat audio cache : YesMake use of C2 pointers : No

Read offset correction : 6Overread into Lead-In and Lead-Out : NoFill up missing offset samples with silence : YesDelete leading and trailing silent blocks : NoNull samples used in CRC calculations : YesUsed interface : Native Win32 interface for Win NT & 2000

Used output format : User Defined EncoderSelected bitrate : 320 kBit/sQuality : HighAdd ID3 tag : NoCommand line compressor : C:\Program Files (x86)\Exact Audio Copy\Flac\flac.exeAdditional command line options : -V -8 -T "Date=%year%" -T "Genre=%genre%" %source%

TOC of the extracted CD

Track | Start | Length | Start sector | End sector --------------------------------------------------------- 1 | 0:00.00 | 3:39.12 | 0 | 16436 2 | 3:39.12 | 3:50.69 | 16437 | 33755 3 | 7:30.06 | 4:12.53 | 33756 | 52708 4 | 11:42.59 | 5:15.32 | 52709 | 76365 5 | 16:58.16 | 4:18.58 | 76366 | 95773 6 | 21:16.74 | 5:14.23 | 95774 | 119346 7 | 26:31.22 | 4:11.27 | 119347 | 138198 8 | 30:42.49 | 4:27.12 | 138199 | 158235 9 | 35:09.61 | 4:00.45 | 158236 | 176280 10 | 39:10.31 | 3:49.30 | 176281 | 193485 11 | 42:59.61 | 5:20.00 | 193486 | 217485 12 | 48:19.61 | 4:54.30 | 217486 | 239565

Range status and errors

Selected range

Filename D:\My Music\Last Autumn's Dream - 2006 Saturn Skyline\Last Autumn's Dream - Saturn Skyline.wav

Peak level 98.8 % Extraction speed 4.3 X Range quality 99.9 % Test CRC 81EC9DE8 Copy CRC 81EC9DE8 Copy OK

No errors occurred

AccurateRip summary

Track 1 accurately ripped (confidence 3) [D853D13C] (AR v1)Track 2 accurately ripped (confidence 3) [54106BD7] (AR v1)Track 3 accurately ripped (confidence 3) [76F5104F] (AR v1)Track 4 accurately ripped (confidence 3) [A4E43AA2] (AR v1)Track 5 accurately ripped (confidence 3) [14C599DF] (AR v1)Track 6 accurately ripped (confidence 3) [5C3E2EA9] (AR v1)Track 7 accurately ripped (confidence 3) [2CC22E5C] (AR v1)Track 8 accurately ripped (confidence 3) [4B9259C4] (AR v1)Track 9 accurately ripped (confidence 3) [764ADD54] (AR v1)Track 10 accurately ripped (confidence 3) [F03CB6D4] (AR v1)Track 11 accurately ripped (confidence 3) [96DF5352] (AR v1)Track 12 accurately ripped (confidence 3) [4969D6AA] (AR v1)

All tracks accurately ripped

End of status report

---- CUETools DB Plugin V2.1.3

[CTDB TOCID: 8XkgCgE.RL0Qqd612C1mqNhONKQ-] database access error: Невозможно разрешить удаленное имя: 'db.cuetools.net'

==== Log checksum 8C7D421C0BB038E0BE39573E1D0808EE4DAAF722209DF8732609C0107E00B967 ====
Продолжительность: 70:30

Треклист:
1. Again And Again - 5:44
2. Break The Chains (Of Destiny) - 5:14
3. Pages - 4:13
4. Up In Paradise - 4:29
5. Love To Go - 3:55
6. Going Home - 4:29
7. Winter In Paradise - 4:01
8. Brand New Life - 5:12
9. After Tomorrow's Gone - 3:51
10. Don't Let Our Love Go Down - 3:54
11. Rocket Of Love (previously unreleased in Japan) - 4:08
12. American Girl - 4:00
13. Domino - 3:49
14. Running - 4:18
15. Doin' Time (previously unreleased in Japan) - 4:12
16. Skyscraper - 4:54
Exact Audio Copy V1.0 beta 3 from 29. August 2011

EAC extraction logfile from 31. May 2012, 22:39

Last Autumn's Dream / Impressions - The Very Best of LAD

Used drive : SlimtypeDVD A DS8A5SH Adapter: 0 ID: 1

Read mode : SecureUtilize accurate stream : YesDefeat audio cache : YesMake use of C2 pointers : No

Read offset correction : 6Overread into Lead-In and Lead-Out : NoFill up missing offset samples with silence : YesDelete leading and trailing silent blocks : NoNull samples used in CRC calculations : YesUsed interface : Native Win32 interface for Win NT & 2000

Used output format : User Defined EncoderSelected bitrate : 320 kBit/sQuality : HighAdd ID3 tag : NoCommand line compressor : C:\Program Files (x86)\Exact Audio Copy\Flac\flac.exeAdditional command line options : -V -8 -T "Date=%year%" -T "Genre=%genre%" %source%

TOC of the extracted CD

Track | Start | Length | Start sector | End sector --------------------------------------------------------- 1 | 0:00.00 | 5:44.27 | 0 | 25826 2 | 5:44.27 | 5:14.05 | 25827 | 49381 3 | 10:58.32 | 4:13.04 | 49382 | 68360 4 | 15:11.36 | 4:29.43 | 68361 | 88578 5 | 19:41.04 | 3:55.48 | 88579 | 106251 6 | 23:36.52 | 4:29.38 | 106252 | 126464 7 | 28:06.15 | 4:01.10 | 126465 | 144549 8 | 32:07.25 | 5:12.44 | 144550 | 167993 9 | 37:19.69 | 3:51.20 | 167994 | 185338 10 | 41:11.14 | 3:54.06 | 185339 | 202894 11 | 45:05.20 | 4:08.50 | 202895 | 221544 12 | 49:13.70 | 4:00.71 | 221545 | 239615 13 | 53:14.66 | 3:49.30 | 239616 | 256820 14 | 57:04.21 | 4:18.72 | 256821 | 276242 15 | 61:23.18 | 4:12.05 | 276243 | 295147 16 | 65:35.23 | 4:54.30 | 295148 | 317227

Range status and errors

Selected range

Filename D:\My Music\Last Autumn's Dream (lossless discography)\Last Autumn's Dream - 2007 Impressions-The Very Best of LAD\Last Autumn's Dream - Impressions - The Very Best of LAD.wav

Peak level 100.0 % Extraction speed 4.9 X Range quality 99.9 % Test CRC FBD85A52 Copy CRC FBD85A52 Copy OK

No errors occurred

AccurateRip summary

Track 1 cannot be verified as accurate (confidence 1) [77860671], AccurateRip returned [63D70D29] (AR v2)Track 2 cannot be verified as accurate (confidence 1) [FC839101], AccurateRip returned [E7318F27] (AR v2)Track 3 cannot be verified as accurate (confidence 1) [DE6FAEEF], AccurateRip returned [E2FF8957] (AR v2)Track 4 cannot be verified as accurate (confidence 1) [D4EB1C8A], AccurateRip returned [06B6FE87] (AR v2)Track 5 cannot be verified as accurate (confidence 1) [E59AC92E], AccurateRip returned [2B2D356B] (AR v2)Track 6 cannot be verified as accurate (confidence 1) [6F7DFF5D], AccurateRip returned [79A628E1] (AR v2)Track 7 cannot be verified as accurate (confidence 1) [A29E6BB3], AccurateRip returned [26D598C4] (AR v2)Track 8 cannot be verified as accurate (confidence 1) [12CD0DA0], AccurateRip returned [F5EAA86E] (AR v2)Track 9 cannot be verified as accurate (confidence 1) [DDED4B09], AccurateRip returned [25FFF812] (AR v2)Track 10 cannot be verified as accurate (confidence 1) [CD1A5B3E], AccurateRip returned [27799AED] (AR v2)Track 11 cannot be verified as accurate (confidence 1) [06E72F69], AccurateRip returned [69886E41] (AR v2)Track 12 cannot be verified as accurate (confidence 1) [AABCB706], AccurateRip returned [6300DC14] (AR v2)Track 13 cannot be verified as accurate (confidence 1) [E707BB26], AccurateRip returned [51058F86] (AR v2)Track 14 cannot be verified as accurate (confidence 1) [C9123985], AccurateRip returned [86BD3474] (AR v2)Track 15 cannot be verified as accurate (confidence 1) [9B1EB417], AccurateRip returned [20A9176D] (AR v2)Track 16 cannot be verified as accurate (confidence 1) [ECB16756], AccurateRip returned [8D69217D] (AR v2)

No tracks could be verified as accurateYou may have a different pressing from the one(s) in the database

End of status report

==== Log checksum ACB7567E22538C8D1A8737D9593F5834D15F1971EE88802175F328E15A8E4636 ====
Продолжительность: 55:49

Треклист:
1. Strange Operation - 4:44
2. Rainbow Sky - 5:15
3. My Alibi - 4:36
4. I'm Not Supposed To Love You Anymore - 5:34
5. Lost In Moscow - 4:16
6. R U Ready To Rock'n Roll - 3:03
7. Serenity - 4:37
8. War Of Your Worlds - 5:16
9. Save Our Love - 5:28
10. Every Beat Of My Heart - 4:44
11. Overnight Sensation - 3:28
12. Match Made In Heaven (bonus track) - 4:13

Состав группы:
Mikael Erlandsson - lead vocals and keyboards
Andy Malecek - guitars
Marcel Jacob - bass and rhythm guitars
Jamie Borger - drums

Гостевой музыкант:
Goran Elmquist - piano & keyboards, guitars & guitar solo on "I'm Not Supposed To Love You Anymore".
Exact Audio Copy V1.0 beta 3 from 29. August 2011

EAC extraction logfile from 8. June 2012, 22:44

Last Autumn's Dream / Hunting Shadows

Used drive : SlimtypeDVD A DS8A5SH Adapter: 0 ID: 1

Read mode : SecureUtilize accurate stream : YesDefeat audio cache : YesMake use of C2 pointers : No

Read offset correction : 6Overread into Lead-In and Lead-Out : NoFill up missing offset samples with silence : YesDelete leading and trailing silent blocks : NoNull samples used in CRC calculations : YesUsed interface : Native Win32 interface for Win NT & 2000

Used output format : User Defined EncoderSelected bitrate : 320 kBit/sQuality : HighAdd ID3 tag : NoCommand line compressor : C:\Program Files (x86)\Exact Audio Copy\Flac\flac.exeAdditional command line options : -V -8 -T "Date=%year%" -T "Genre=%genre%" %source%

TOC of the extracted CD

Track | Start | Length | Start sector | End sector --------------------------------------------------------- 1 | 0:00.00 | 4:46.43 | 0 | 21492 2 | 4:46.43 | 5:14.40 | 21493 | 45082 3 | 10:01.08 | 4:50.40 | 45083 | 66872 4 | 14:51.48 | 5:33.08 | 66873 | 91855 5 | 20:24.56 | 4:16.37 | 91856 | 111092 6 | 24:41.18 | 3:08.34 | 111093 | 125226 7 | 27:49.52 | 4:40.37 | 125227 | 146263 8 | 32:30.14 | 5:19.54 | 146264 | 170242 9 | 37:49.68 | 5:33.38 | 170243 | 195255 10 | 43:23.31 | 4:38.42 | 195256 | 216147 11 | 48:01.73 | 3:33.26 | 216148 | 232148 12 | 51:35.24 | 4:13.26 | 232149 | 251149

Range status and errors

Selected range

Filename D:\My Music\Last Autumn's Dream (lossless discography)\Last Autumn's Dream - 2007 Hunting Shadows\Last Autumn's Dream - Hunting Shadows.wav

Peak level 95.9 % Extraction speed 4.4 X Range quality 100.0 % Test CRC 3BAC22C4 Copy CRC 3BAC22C4 Copy OK

No errors occurred

AccurateRip summary

Track 1 accurately ripped (confidence 3) [6A75F5C5] (AR v1)Track 2 accurately ripped (confidence 3) [DE6A5D3C] (AR v1)Track 3 accurately ripped (confidence 3) [952D9BC5] (AR v1)Track 4 accurately ripped (confidence 3) [D8791796] (AR v1)Track 5 accurately ripped (confidence 3) [25A8E1A7] (AR v1)Track 6 accurately ripped (confidence 3) [8216CB4C] (AR v1)Track 7 accurately ripped (confidence 3) [35A06CB7] (AR v1)Track 8 accurately ripped (confidence 3) [ADA95FE9] (AR v1)Track 9 accurately ripped (confidence 3) [28525F2F] (AR v1)Track 10 accurately ripped (confidence 3) [F4222355] (AR v1)Track 11 accurately ripped (confidence 3) [CCA49002] (AR v1)Track 12 accurately ripped (confidence 3) [2A729F27] (AR v1)

All tracks accurately ripped

End of status report

==== Log checksum 0C61AB6C98627493FC71EEDFC8799767BB68D7D1ABF9E64D8AFEBC878241C3C1 ====
Продолжительность: 44:39

Треклист:
1. For The Young And The Wild - 3:48
2. After Tomorrow's Gone - 3:53
3. Pages - 4:15
4. Heat Of Emotion - 3:04
5. Love To Go - 3:53
6. It's Alright - 4:41
7. Rock'n Roll Is Saving My Soul - 6:24
8. Again And Again - 6:21
9. When You Love Someone (new song) - 3:12
10. You Won't See Me Cry (new song) - 5:05

Состав группы:
Mikael Erlandsson - lead vocals and keyboards
Andy Malecek - guitars
Marcel Jacob - bass
Jamie Borger - drums
Exact Audio Copy V1.0 beta 3 from 29. August 2011

EAC extraction logfile from 10. July 2012, 0:31

Last Autumn's Dream / Live In Germany

Used drive : SlimtypeDVD A DS8A5SH Adapter: 0 ID: 1

Read mode : SecureUtilize accurate stream : YesDefeat audio cache : YesMake use of C2 pointers : No

Read offset correction : 6Overread into Lead-In and Lead-Out : NoFill up missing offset samples with silence : YesDelete leading and trailing silent blocks : NoNull samples used in CRC calculations : YesUsed interface : Native Win32 interface for Win NT & 2000

Used output format : User Defined EncoderSelected bitrate : 320 kBit/sQuality : HighAdd ID3 tag : NoCommand line compressor : C:\Program Files (x86)\Exact Audio Copy\Flac\flac.exeAdditional command line options : -V -8 -T "Date=%year%" -T "Genre=%genre%" %source%

TOC of the extracted CD

Track | Start | Length | Start sector | End sector --------------------------------------------------------- 1 | 0:00.00 | 3:48.63 | 0 | 17162 2 | 3:48.63 | 3:53.45 | 17163 | 34682 3 | 7:42.33 | 4:15.51 | 34683 | 53858 4 | 11:58.09 | 3:04.34 | 53859 | 67692 5 | 15:02.43 | 3:53.00 | 67693 | 85167 6 | 18:55.43 | 4:41.18 | 85168 | 106260 7 | 23:36.61 | 6:24.07 | 106261 | 135067 8 | 30:00.68 | 6:21.48 | 135068 | 163690 9 | 36:22.41 | 3:12.00 | 163691 | 178090 10 | 39:34.41 | 5:04.34 | 178091 | 200924

Range status and errors

Selected range

Filename D:\My Music\Last Autumn's Dream - 2008 Live In Germany\Last Autumn's Dream - Live In Germany.wav

Peak level 96.6 % Extraction speed 4.1 X Range quality 100.0 % Test CRC C3BBE7E0 Copy CRC C3BBE7E0 Copy OK

No errors occurred

AccurateRip summary

Track 1 not present in databaseTrack 2 not present in databaseTrack 3 not present in databaseTrack 4 not present in databaseTrack 5 not present in databaseTrack 6 not present in databaseTrack 7 not present in databaseTrack 8 not present in databaseTrack 9 not present in databaseTrack 10 not present in database

None of the tracks are present in the AccurateRip database

End of status report

---- CUETools DB Plugin V2.1.3

[CTDB TOCID: _G5UewkaEdZA_yq74VvAbxXodDI-] disk not present in database, Submit result: database access error: Запрос был прерван: Запрос отменен.

==== Log checksum 1A3B0000E0ED986C95C3C664D93484B96F7E510E0F27785AC17C6441AE85F3D6 ====
Продолжительность: 57:51

Треклист:
1. Welcome... - 2:21
2. One By One - 3:43
3. Hold On To My Heart - 4:34
4. Frozen Flower - 4:21
5. Silent Dream - 4:47
6. Alarm - 4:16
7. Never Faraway - 4:45
8. Hello, Hello, Hello (New England cover)(bonus track) - 3:21
9. Your Kind Of Loving - 3:45
10. The Last To Know - 4:52
11. When Love Strikes Down - 3:14
12. Who Needs Love? - 4:48
13. Me & You - 4:09
14. When My Love Has Left Your Heart - 4:55

Состав группы:
Mikael Erlandsson - lead vocals and keyboards
Andy Malecek - guitars
Marcel Jacob - bass and rhythm guitars
Jamie Borger - drums

Гостевые музыканты:
Martin Krolund - additional guitars
Sayit Dolen - additional guitar on "Alarm"
Exact Audio Copy V1.0 beta 3 from 29. August 2011

EAC extraction logfile from 31. May 2012, 23:16

Last Autumn's Dream / Dreamcatcher

Used drive : SlimtypeDVD A DS8A5SH Adapter: 0 ID: 1

Read mode : SecureUtilize accurate stream : YesDefeat audio cache : YesMake use of C2 pointers : No

Read offset correction : 6Overread into Lead-In and Lead-Out : NoFill up missing offset samples with silence : YesDelete leading and trailing silent blocks : NoNull samples used in CRC calculations : YesUsed interface : Native Win32 interface for Win NT & 2000

Used output format : User Defined EncoderSelected bitrate : 320 kBit/sQuality : HighAdd ID3 tag : NoCommand line compressor : C:\Program Files (x86)\Exact Audio Copy\Flac\flac.exeAdditional command line options : -V -8 -T "Date=%year%" -T "Genre=%genre%" %source%

TOC of the extracted CD

Track | Start | Length | Start sector | End sector --------------------------------------------------------- 1 | 0:00.00 | 2:21.25 | 0 | 10599 2 | 2:21.25 | 3:43.70 | 10600 | 27394 3 | 6:05.20 | 4:34.71 | 27395 | 48015 4 | 10:40.16 | 4:21.27 | 48016 | 67617 5 | 15:01.43 | 4:47.65 | 67618 | 89207 6 | 19:49.33 | 4:16.43 | 89208 | 108450 7 | 24:06.01 | 4:45.21 | 108451 | 129846 8 | 28:51.22 | 3:21.57 | 129847 | 144978 9 | 32:13.04 | 3:45.56 | 144979 | 161909 10 | 35:58.60 | 4:52.61 | 161910 | 183870 11 | 40:51.46 | 3:14.53 | 183871 | 198473 12 | 44:06.24 | 4:48.36 | 198474 | 220109 13 | 48:54.60 | 4:09.49 | 220110 | 238833 14 | 53:04.34 | 4:55.28 | 238834 | 260986

Range status and errors

Selected range

Filename D:\My Music\Last Autumn's Dream (lossless discography)\Last Autumn's Dream - 2008 Dreamcatcher\Last Autumn's Dream - Dreamcatcher.wav

Peak level 100.0 % Extraction speed 4.5 X Range quality 100.0 % Test CRC 48BEAA70 Copy CRC 48BEAA70 Copy OK

No errors occurred

AccurateRip summary

Track 1 accurately ripped (confidence 2) [5573B20F] (AR v1)Track 2 accurately ripped (confidence 2) [2412F64F] (AR v1)Track 3 accurately ripped (confidence 2) [DC582AFF] (AR v1)Track 4 accurately ripped (confidence 2) [50BD6342] (AR v1)Track 5 accurately ripped (confidence 2) [A022E503] (AR v1)Track 6 accurately ripped (confidence 2) [0B2D6FEC] (AR v1)Track 7 accurately ripped (confidence 2) [3497480C] (AR v1)Track 8 accurately ripped (confidence 2) [EC9287DD] (AR v1)Track 9 accurately ripped (confidence 2) [C2F21FF2] (AR v1)Track 10 accurately ripped (confidence 2) [79D5D4CF] (AR v1)Track 11 accurately ripped (confidence 2) [C6D623D3] (AR v1)Track 12 accurately ripped (confidence 2) [C3662B9A] (AR v1)Track 13 accurately ripped (confidence 2) [B254AAEE] (AR v1)Track 14 accurately ripped (confidence 2) [A41B77DE] (AR v1)

All tracks accurately ripped

End of status report

==== Log checksum D3940BF9D6343DFF803751B84D909A57833D58828DCA0CDCFD612A3899E1B2B5 ====
Продолжительность: 57:12

Треклист:
1. Heaven & Earth - A Requiem to Marcel Jacob - 0:39
2. Caught in Between - 4:18
3. Top of the World - 3:28
4. Candle in the Dark - 4:49
5. Come Rain or Shine - 4:30
6. Heartbreaker - 4:22
7. Last Mistake - 4:39
8. See my Baby Jive (Wizzard cover) - 4:31
9. Renegade - 3:37
10. What's on your Mind - 3:57
11. How Long - 3:55
12. Surrender (Cheap Trick cover)- 4:28
13. Running on Like Water (bonus track) - 4:04
14. Jenny's Eyes - 5:47

Состав группы:
Mikael Erlandsson - lead, backing vocals & keyboards
Andy Malecek - lead guitar
Jamie Borger - drums & backing vocals
Nalley Pahlsson - bass & backing vocals

Гостевые музыканты:
Marcel Jacob - bass solo on "Heaven & Earth"
Peter Soderstrom - all rhythm guitars
Richard Quist - keyboards on "Running on Like Water"
Ulf Wahlberg - keyboards on "Candle in the Dark", "Heaven & Earth" & "See My Baby Jive"
Jeff Scott Soto - backing vocals on "Last Mistake"
Exact Audio Copy V1.0 beta 3 from 29. August 2011

EAC extraction logfile from 10. July 2012, 1:07

Last Autumn's Dream / A Touch Of Heaven

Used drive : SlimtypeDVD A DS8A5SH Adapter: 0 ID: 1

Read mode : SecureUtilize accurate stream : YesDefeat audio cache : YesMake use of C2 pointers : No

Read offset correction : 6Overread into Lead-In and Lead-Out : NoFill up missing offset samples with silence : YesDelete leading and trailing silent blocks : NoNull samples used in CRC calculations : YesUsed interface : Native Win32 interface for Win NT & 2000

Used output format : User Defined EncoderSelected bitrate : 320 kBit/sQuality : HighAdd ID3 tag : NoCommand line compressor : C:\Program Files (x86)\Exact Audio Copy\Flac\flac.exeAdditional command line options : -V -8 -T "Date=%year%" -T "Genre=%genre%" %source%

TOC of the extracted CD

Track | Start | Length | Start sector | End sector --------------------------------------------------------- 1 | 0:00.00 | 0:39.47 | 0 | 2971 2 | 0:39.47 | 4:18.21 | 2972 | 22342 3 | 4:57.68 | 3:28.12 | 22343 | 37954 4 | 8:26.05 | 4:49.50 | 37955 | 59679 5 | 13:15.55 | 4:30.04 | 59680 | 79933 6 | 17:45.59 | 4:22.12 | 79934 | 99595 7 | 22:07.71 | 4:39.46 | 99596 | 120566 8 | 26:47.42 | 4:31.54 | 120567 | 140945 9 | 31:19.21 | 3:37.51 | 140946 | 157271 10 | 34:56.72 | 3:57.68 | 157272 | 175114 11 | 38:54.65 | 3:55.43 | 175115 | 192782 12 | 42:50.33 | 4:28.73 | 192783 | 212955 13 | 47:19.31 | 4:04.50 | 212956 | 231305 14 | 51:24.06 | 5:47.61 | 231306 | 257391

Range status and errors

Selected range

Filename D:\My Music\Last Autumn's Dream - 2009 A Touch Of Heaven\Last Autumn's Dream - A Touch Of Heaven.wav

Peak level 99.6 % Extraction speed 4.3 X Range quality 99.9 % Test CRC FA197D6C Copy CRC FA197D6C Copy OK

No errors occurred

AccurateRip summary

Track 1 cannot be verified as accurate (confidence 1) [302C0494], AccurateRip returned [FE753298] (AR v2)Track 2 cannot be verified as accurate (confidence 1) [BE7104B9], AccurateRip returned [CBF6ACF4] (AR v2)Track 3 cannot be verified as accurate (confidence 1) [D1E8C794], AccurateRip returned [6191DDA0] (AR v2)Track 4 cannot be verified as accurate (confidence 1) [276EBA9B], AccurateRip returned [60A51163] (AR v2)Track 5 cannot be verified as accurate (confidence 1) [EC08D0FE], AccurateRip returned [6EC407CD] (AR v2)Track 6 cannot be verified as accurate (confidence 1) [BC6EF65E], AccurateRip returned [A0ACFA9D] (AR v2)Track 7 cannot be verified as accurate (confidence 1) [B0AB2F86], AccurateRip returned [CD247D13] (AR v2)Track 8 cannot be verified as accurate (confidence 1) [8264F238], AccurateRip returned [AFCB716E] (AR v2)Track 9 cannot be verified as accurate (confidence 1) [4EB8B71D], AccurateRip returned [B39BAE57] (AR v2)Track 10 cannot be verified as accurate (confidence 1) [00B1831A], AccurateRip returned [3BD501CC] (AR v2)Track 11 cannot be verified as accurate (confidence 1) [28E175D3], AccurateRip returned [2867106B] (AR v2)Track 12 cannot be verified as accurate (confidence 1) [F7F03D17], AccurateRip returned [AEBB8FAF] (AR v2)Track 13 cannot be verified as accurate (confidence 1) [84C04D93], AccurateRip returned [A0C1ADA8] (AR v2)Track 14 cannot be verified as accurate (confidence 1) [5378BA5A], AccurateRip returned [A9F80037] (AR v2)

No tracks could be verified as accurateYou may have a different pressing from the one(s) in the database

End of status report

---- CUETools DB Plugin V2.1.3

[CTDB TOCID: pYsnZv3.1EGhKOHHbmB1NEboTUg-] found, Submit result: pYsnZv3.1EGhKOHHbmB1NEboTUg- has been confirmed[5bd0b537] (2/2) Accurately ripped

==== Log checksum 41E279C85D80A4C15690170D77B7FCBBB11D5FF8688B31882D91A7086D4ED9A8 ====
Продолжительность: 56:04

Треклист:
1. I've Fallen Into You - 3:48
2. The Sound Of A Heartbreak - 3:59
3. Another Night - 4:06
4. Fool's Game (Michael Bolton cover) - 4:15
5. If I Could Change The World - 4:03
6. To Be With You - 4:20
7. Michelle Don't Live Here No More - 4:45
8. In This Thing Too Deep - 4:50
9. Still Standin' Where Ya Left Me - 4:27
10. Kissin' Goodbye My Tears (Moon Over Paris cover) - 3:58
11. Survivor - 4:07
12. I Forgive You (bonus track) - 4:00
13. Alive - 5:26

Состав группы:
Mikael Erlandsson - lead, backing vocals & keyboards
Andy Malecek - lead guitar
Jamie Borger - drums, percussion & backing vocals
Nalley Pahlsson - electric bass guitar & backing vocals

Гостевые музыканты:
Peter Soderstrom - rhythm, acoustic & additional guitars
Jenny Redenkvist - backing vocals on "I've Fallen Into You"
The Bargerettes
(Josefin Borger, Johanna Borger & Matilda Borger) - handclap on "Fool's Game", "In This Thing Too Deep" & "Kissin' Goodbye My Tears"
Exact Audio Copy V1.0 beta 3 from 29. August 2011

EAC extraction logfile from 3. June 2012, 16:07

Last Autumn's Dream / Yes

Used drive : SlimtypeDVD A DS8A5SH Adapter: 0 ID: 1

Read mode : SecureUtilize accurate stream : YesDefeat audio cache : YesMake use of C2 pointers : No

Read offset correction : 6Overread into Lead-In and Lead-Out : NoFill up missing offset samples with silence : YesDelete leading and trailing silent blocks : NoNull samples used in CRC calculations : YesUsed interface : Native Win32 interface for Win NT & 2000

Used output format : User Defined EncoderSelected bitrate : 320 kBit/sQuality : HighAdd ID3 tag : NoCommand line compressor : C:\Program Files (x86)\Exact Audio Copy\Flac\flac.exeAdditional command line options : -V -8 -T "Date=%year%" -T "Genre=%genre%" %source%

TOC of the extracted CD

Track | Start | Length | Start sector | End sector --------------------------------------------------------- 1 | 0:00.00 | 3:48.69 | 0 | 17168 2 | 3:48.69 | 3:59.38 | 17169 | 35131 3 | 7:48.32 | 4:06.18 | 35132 | 53599 4 | 11:54.50 | 4:15.55 | 53600 | 72779 5 | 16:10.30 | 4:03.50 | 72780 | 91054 6 | 20:14.05 | 4:20.54 | 91055 | 110608 7 | 24:34.59 | 4:45.65 | 110609 | 132048 8 | 29:20.49 | 4:50.50 | 132049 | 153848 9 | 34:11.24 | 4:27.12 | 153849 | 173885 10 | 38:38.36 | 3:58.55 | 173886 | 191790 11 | 42:37.16 | 4:07.46 | 191791 | 210361 12 | 46:44.62 | 4:00.45 | 210362 | 228406 13 | 50:45.32 | 5:25.50 | 228407 | 252831

Range status and errors

Selected range

Filename D:\My Music\Last Autumn's Dream (lossless discography)\Last Autumn's Dream - 2010 Yes\Last Autumn's Dream - Yes.wav

Peak level 98.2 % Extraction speed 4.4 X Range quality 100.0 % Test CRC 05717A30 Copy CRC 05717A30 Copy OK

No errors occurred

AccurateRip summary

Track 1 not present in databaseTrack 2 not present in databaseTrack 3 not present in databaseTrack 4 not present in databaseTrack 5 not present in databaseTrack 6 not present in databaseTrack 7 not present in databaseTrack 8 not present in databaseTrack 9 not present in databaseTrack 10 not present in databaseTrack 11 not present in databaseTrack 12 not present in databaseTrack 13 not present in database

None of the tracks are present in the AccurateRip database

End of status report

==== Log checksum 82BD8C93CBE576A638C027FCCEB660E7F9538B5C87853F01E664A6ED6E641571 ====
Продолжительность: 51:01

Треклист:
1. In A Perfect World - 4:10
2. Nine Lives - 5:04
3. In This Just Another Heartache - 4:21
4. Merry-Go-Round - 3:47
5. Golden Cage - 4:39
6. All I Can Think Of - 4:13
7. Megalomania - 4:09
8. The Last To Know (duet with Jeff Scott Soto)- 3:56
9. Angel Eyes (feat. Jenny Redenkvist) - 3:59
10. We Never Said Goodbye - 4:12
11. Waited A Long Time (Angel cover) (bonus track) - 3:36
12. Don't Let Love Fade Away - 4:55

Состав группы:
Mikael Erlandsson - lead, backing vocals & keyboards
Andy Malecek - lead guitar
Jamie Borger - drums, percussion & backing vocals
Nalley Pahlsson - electric bass guitar & backing vocals

Гостевые музыканты:
Peter Pac Saderstrom - rhythm, acoustic & additional guitars
Jenny Redenkvist - backing vocals
Ulf Wahlberg - piano on "We Never Said Goodbye"
The Bargerettes
(Josefin, Johanna & Matilda Borger) - handclap
Exact Audio Copy V1.0 beta 3 from 29. August 2011

EAC extraction logfile from 13. January 2012, 19:35

Last Autumn's Dream / Nine Lives

Used drive : SlimtypeDVD A DS8A5SH Adapter: 0 ID: 1

Read mode : SecureUtilize accurate stream : YesDefeat audio cache : YesMake use of C2 pointers : No

Read offset correction : 6Overread into Lead-In and Lead-Out : NoFill up missing offset samples with silence : YesDelete leading and trailing silent blocks : NoNull samples used in CRC calculations : YesUsed interface : Native Win32 interface for Win NT & 2000

Used output format : User Defined EncoderSelected bitrate : 320 kBit/sQuality : HighAdd ID3 tag : NoCommand line compressor : C:\Program Files (x86)\Exact Audio Copy\Flac\flac.exeAdditional command line options : -V -8 -T "Date=%year%" -T "Genre=%genre%" %source%

TOC of the extracted CD

Track | Start | Length | Start sector | End sector --------------------------------------------------------- 1 | 0:00.00 | 4:10.72 | 0 | 18821 2 | 4:10.72 | 5:04.48 | 18822 | 41669 3 | 9:15.45 | 4:21.52 | 41670 | 61296 4 | 13:37.22 | 3:47.47 | 61297 | 78368 5 | 17:24.69 | 4:39.48 | 78369 | 99341 6 | 22:04.42 | 4:13.66 | 99342 | 118382 7 | 26:18.33 | 4:09.63 | 118383 | 137120 8 | 30:28.21 | 3:56.64 | 137121 | 154884 9 | 34:25.10 | 3:59.58 | 154885 | 172867 10 | 38:24.68 | 4:12.33 | 172868 | 191800 11 | 42:37.26 | 3:36.42 | 191801 | 208042 12 | 46:13.68 | 4:54.55 | 208043 | 230147

Range status and errors

Selected range

Filename D:\My Music\Last Autumn's Dream - 2010 Nine Lives\Last Autumn's Dream - Nine Lives.wav

Peak level 98.4 % Extraction speed 4.3 X Range quality 99.9 % Test CRC 8660E3A1 Copy CRC 8660E3A1 Copy OK

No errors occurred

AccurateRip summary

Track 1 not present in databaseTrack 2 not present in databaseTrack 3 not present in databaseTrack 4 not present in databaseTrack 5 not present in databaseTrack 6 not present in databaseTrack 7 not present in databaseTrack 8 not present in databaseTrack 9 not present in databaseTrack 10 not present in databaseTrack 11 not present in databaseTrack 12 not present in database

None of the tracks are present in the AccurateRip database

End of status report

==== Log checksum 7035928DF0F8156C1D927CD364A5F4949B83F5521F7EEC4C27FC5E362D972808 ====
BONUS
Продолжительность: 44:23

Треклист:
1. Love To Go - 3:59
2. Don't Let Our Love Go Down - 3:58
3. The Way You Smile - 3:42
4. When She's Gone (bonus track for Europe) - 4:17
5. My Heart Keeps Stalling - 4:10
6. Echoes From The Past - 3:19
7. Winter In Paradise - 4:05
8. I Don't Want To Hurt You - 3:52
9. All I Want Is Rock N'Roll - 3:34
10. If You're The One - 4:56
11. Love Is The Answer (bonus track for Europe) - 4:27

Including video of the Hitsingle "I Don't Want To Hurt You"
Exact Audio Copy V1.0 beta 3 from 29. August 2011

EAC extraction logfile from 9. August 2012, 23:11

Last Autumn's Dream / Winter in Paradise

Used drive : SlimtypeDVD A DS8A5SH Adapter: 0 ID: 1

Read mode : SecureUtilize accurate stream : YesDefeat audio cache : YesMake use of C2 pointers : No

Read offset correction : 6Overread into Lead-In and Lead-Out : NoFill up missing offset samples with silence : YesDelete leading and trailing silent blocks : NoNull samples used in CRC calculations : YesUsed interface : Native Win32 interface for Win NT & 2000

Used output format : User Defined EncoderSelected bitrate : 320 kBit/sQuality : HighAdd ID3 tag : NoCommand line compressor : C:\Program Files (x86)\Exact Audio Copy\Flac\flac.exeAdditional command line options : -V -8 -T "Date=%year%" -T "Genre=%genre%" %source%

TOC of the extracted CD

Track | Start | Length | Start sector | End sector --------------------------------------------------------- 1 | 0:00.00 | 3:59.50 | 0 | 17974 2 | 3:59.50 | 3:58.32 | 17975 | 35856 3 | 7:58.07 | 3:42.59 | 35857 | 52565 4 | 11:40.66 | 4:17.20 | 52566 | 71860 5 | 15:58.11 | 4:10.62 | 71861 | 90672 6 | 20:08.73 | 3:19.29 | 90673 | 105626 7 | 23:28.27 | 4:05.12 | 105627 | 124013 8 | 27:33.39 | 3:52.72 | 124014 | 141485 9 | 31:26.36 | 3:34.34 | 141486 | 157569 10 | 35:00.70 | 4:56.03 | 157570 | 179772 11 | 39:56.73 | 4:26.18 | 179773 | 199740 12 | 46:55.16 | 9:36.40 | 211141 | 254380

Range status and errors

Selected range

Filename D:\My Music\Last Autumn's Dream (lossless discography)\Last Autumn's Dream - 2006 Winter In Paradise (European Edition)\Last Autumn's Dream - Winter in Paradise.wav

Peak level 98.8 % Extraction speed 1.7 X Range quality 100.0 % Test CRC B16D7CB8 Copy CRC B16D7CB8 Copy OK

No errors occurred

AccurateRip summary

Track 1 accurately ripped (confidence 2) [574C9F86] (AR v2)Track 2 accurately ripped (confidence 2) [1006A1B2] (AR v2)Track 3 accurately ripped (confidence 2) [E638056E] (AR v2)Track 4 accurately ripped (confidence 2) [ABB806FA] (AR v2)Track 5 accurately ripped (confidence 2) [1BC947B5] (AR v2)Track 6 accurately ripped (confidence 2) [9BA73BA7] (AR v2)Track 7 accurately ripped (confidence 2) [9073898F] (AR v2)Track 8 accurately ripped (confidence 2) [DA21E043] (AR v2)Track 9 accurately ripped (confidence 2) [4E5EB7CD] (AR v2)Track 10 accurately ripped (confidence 2) [15B13F2C] (AR v2)Track 11 accurately ripped (confidence 2) [73B8A580] (AR v2)

All tracks accurately ripped

End of status report

==== Log checksum 04371DE7A01A373560DD26B01920885708DD23911A4FFDE58B538418459B4A5F ====
ОбщееПолное имя : D:\My Music\Last Autumn's Dream (lossless discography)\Last Autumn's Dream - 2006 Winter In Paradise (European Edition)\I Don't Want To Hurt You.mpgФормат : MPEG-PSРазмер файла : 83,4 МбайтПродолжительность : 3 м. 45 с.Общий поток : 3101 Кбит/сек

ВидеоИдентификатор : 224 (0xE0)Формат : MPEG VideoВерсия формата : Version 1Параметр BVOP формата : ДаПараметр матрицы формата : По умолчаниюПродолжительность : 3 м. 45 с.Битрейт : 2666 Кбит/секШирина : 352 пикселяВысота : 288 пикселейСоотношение сторон : 4:3Частота кадров : 25,000 кадров/секСтандарт вещания : PALЦветовое пространство : YUVБитовая глубина : 8 битТип развёртки : ПрогрессивнаяМетод сжатия : С потерямиБит/(Пиксели*Кадры) : 1.052Размер потока : 71,4 Мбайт (86%)

АудиоИдентификатор : 192 (0xC0)Формат : MPEG AudioВерсия формата : Version 1Профиль формата : Layer 2Продолжительность : 3 м. 45 с.Вид битрейта : ПостоянныйБитрейт : 384 Кбит/секКаналы : 2 каналаЧастота : 44,1 КГцМетод сжатия : С потерямиЗадержка видео : -80 мс.Размер потока : 10,3 Мбайт (12%)


Трекер:  [ 19-Сен-2012 15:44 ]

  

Скачать .torrent

Размер .torrent файла 47 KB


Размер: 5.71 GB
Хэш (hash) релиза: 9f8d53058ec9b1a3165f01da58615a2f8f4d46e6

Еще никто не оставлял запись к записи скачать торрент Last Autumns Dream - Дискография 2003-2011 . Будь первым!

!Обратная связь