Скачать через торрент музыку = Little River Band = A Little River Band Christmas = 2011 = FLAC бесплатно без регистрации torrent

Если у вас наблюдаются проблемы со скриншотами, переходом по ссылками, скачиванием торрентов - проблемы в блокировщике рекламы AdBlock. #хорошегоДня!


Статистика раздачи
Размер:  370 MB   |    Зарегистрирован:  4 года 10 месяцев   |    .torrent скачан:  8 раз   |   
Раздают:  1  
   
Загрузка...
 
Автор Сообщение

Galfimbul

avatar Galfimbul


= Little River Band =
= A Little River Band Christmas = 2011 =

Год выпуска диска: 2011
Производитель диска: Australia
Аудио кодек: FLAC
Лейбл: WBA Records/WBA-1101
Наличие сканов: Да
Источник: Личная коллекция
Тип рипа: image+.cue
Битрейт аудио: lossless
Трэклист:

1. We Call It Christmas
2. The Season of Love
3. Mary's Christmas
4. The Three Kings
5. Do They Know It's Christmas
6. My Grownup Christmas
7. You Make It Feel Like Christmas
8. O Little Town of Bethlehem
9. A Joyful Noise
10. Jesus, Oh What a Wonderful Child
11. Celebrate Me Home
12. Silent Night
13. 'Til the Season Comes 'Round Again

Состав:
Reindeer:
Rich Herring: Guitars, Vocals
Stephen Housden: Guitars
Greg Hind: Guitars, Lead Vocals
Chris Marion: Keyboards, Vocals
Wayne Nelson: Bass, Lead Vocals
Kip Raines: Drums, Percussion
Mel Watts: Drums, Percussion

Angels:
Susan Ashton: Vocals
Lisa Gregg: Vocals
Suzanne Karr: Vocals
Andrea Zonn: Violin, Viola, Vocals

Elves:
Jan Janvier: FOH Engineer (teller of all tales)
Dan Lastovka: Monitor Engineer (fixer of all toys)
Pat Ryan: Guitar Tech (finder of all goodies)
Pat Whitwam: Lighting Director (peace on earth)

Arranged and Produced by Little River Band
EAC Log:
Exact Audio Copy V1.0 beta 3 from 29. August 2011

EAC extraction logfile from 14. September 2012, 14:13

Little River Band / A Little River Band Christmas

Used drive : Optiarc DVD RW AD-7203S Adapter: 3 ID: 0

Read mode : Secure
Utilize accurate stream : Yes
Defeat audio cache : Yes
Make use of C2 pointers : No

Read offset correction : 48
Overread into Lead-In and Lead-Out : No
Fill up missing offset samples with silence : Yes
Delete leading and trailing silent blocks : No
Null samples used in CRC calculations : Yes
Used interface : Native Win32 interface for Win NT & 2000

Used output format : User Defined Encoder
Selected bitrate : 896 kBit/s
Quality : High
Add ID3 tag : Yes
Command line compressor : D:\EAC\Flac\flac.exe
Additional command line options : -V -8 -T "Date=%year%" -T "Genre=%genre%" %source%

TOC of the extracted CD

Track | Start | Length | Start sector | End sector
---------------------------------------------------------
1 | 0:00.00 | 4:03.00 | 0 | 18224
2 | 4:03.00 | 3:55.61 | 18225 | 35910
3 | 7:58.61 | 3:49.14 | 35911 | 53099
4 | 11:48.00 | 4:28.27 | 53100 | 73226
5 | 16:16.27 | 4:11.62 | 73227 | 92113
6 | 20:28.14 | 3:52.35 | 92114 | 109548
7 | 24:20.49 | 3:29.22 | 109549 | 125245
8 | 27:49.71 | 3:16.68 | 125246 | 140013
9 | 31:06.64 | 4:21.00 | 140014 | 159588
10 | 35:27.64 | 3:54.51 | 159589 | 177189
11 | 39:22.40 | 3:40.65 | 177190 | 193754
12 | 43:03.30 | 1:56.59 | 193755 | 202513
13 | 45:00.14 | 3:21.37 | 202514 | 217625

Range status and errors

Selected range

Filename E:\Little River Band - A Little River Band Christmas.wav

Peak level 100.0 %
Extraction speed 3.9 X
Range quality 99.9 %
Test CRC 203EB3B8
Copy CRC 203EB3B8
Copy OK

No errors occurred

AccurateRip summary

Track 1 accurately ripped (confidence 1) [66F41392] (AR v1)
Track 2 accurately ripped (confidence 1) [FF07024B] (AR v1)
Track 3 accurately ripped (confidence 1) [11169E1B] (AR v1)
Track 4 accurately ripped (confidence 1) [7EDD67DD] (AR v1)
Track 5 accurately ripped (confidence 1) [B844F488] (AR v1)
Track 6 accurately ripped (confidence 1) [04BC4693] (AR v1)
Track 7 accurately ripped (confidence 1) [D439A7ED] (AR v1)
Track 8 accurately ripped (confidence 1) [6EBB18B3] (AR v1)
Track 9 accurately ripped (confidence 1) [A0D94951] (AR v1)
Track 10 accurately ripped (confidence 1) [9CAA64D7] (AR v1)
Track 11 accurately ripped (confidence 1) [B49735F0] (AR v1)
Track 12 accurately ripped (confidence 1) [C90A1793] (AR v1)
Track 13 accurately ripped (confidence 1) [2F6BA3ED] (AR v1)

All tracks accurately ripped

End of status report

---- CUETools DB Plugin V2.1.3

[CTDB TOCID: wfRuBMRFndweXSHDSMOIOISnEv8-] found, Submit result: wfRuBMRFndweXSHDSMOIOISnEv8- has been confirmed
[159af08c] (1/1) Accurately ripped

==== Log checksum 9C8A582B0A439810687D120601779BF64EFD613ED3782E7960DFAAA58455BCAB ====
Доп. информация:
И еще одни Рождественские песенки от Little River Band. Отличается от 2007 другой обложкой и двумя дополнительными песенками. Только для фанатов!!!


Приятного прослушивания! Зарелизено на http://рутраскер


Трекер:  [ 19-Сен-2012 15:44 ]

  

Скачать .torrent

Размер .torrent файла 15 KB


Размер: 370 MB
Хэш (hash) релиза: 10daca6a255504405b8e6a04d82526c2ecaf574c

Еще никто не оставлял запись к записи скачать торрент = Little River Band = A Little River Band Christmas = 2011 = FLAC . Будь первым!

!Обратная связь