Скачать через торрент музыку = Little River Band = Where We Started From = 2001 = FLAC бесплатно без регистрации torrent

Если у вас наблюдаются проблемы со скриншотами, переходом по ссылками, скачиванием торрентов - проблемы в блокировщике рекламы AdBlock. #хорошегоДня!


Статистика раздачи
Размер:  373 MB   |    Зарегистрирован:  4 года 11 месяцев   |    .torrent скачан:  21 раз   |   
Раздают:  1  
   
Загрузка...
 
Автор Сообщение

Galfimbul

avatar Galfimbul


= Little River Band =
= Where We Started From = 2001 =

Год выпуска диска: 2001
Производитель диска: Australia
Аудио кодек: FLAC
Лейбл: Scream Marketing/SCR-5
Наличие сканов: Да
Источник: Личная коллекция
Тип рипа: image+.cue
Битрейт аудио: lossless
Трэклист:

1. Where We Started From
2. This Place
3. Magazine Girl
4. Just You and I
5. Night Owls
6. I Think I Left My Heart With You
7. Who Made the Moon
8. Look in Your Eyes
9. American Way
10. Lead Me to Water
11. Cool Change

Состав:
Jaime Gildea - Composer
Graham Goble - Composer
Steve Hall - Mastering
Stephen Housden - Composer, Guitar
Wayne Nelson - Bass, Composer, Producer, Vocals
R. Scott - Composer
Glenn Shorrock - Composer
EAC Log:
Exact Audio Copy V1.0 beta 3 from 29. August 2011

EAC extraction logfile from 28. April 2012, 14:47

Little River Band / Where We Started From

Used drive : Optiarc DVD RW AD-7203S Adapter: 3 ID: 0

Read mode : Secure
Utilize accurate stream : Yes
Defeat audio cache : Yes
Make use of C2 pointers : No

Read offset correction : 48
Overread into Lead-In and Lead-Out : No
Fill up missing offset samples with silence : Yes
Delete leading and trailing silent blocks : No
Null samples used in CRC calculations : Yes
Used interface : Native Win32 interface for Win NT & 2000

Used output format : User Defined Encoder
Selected bitrate : 896 kBit/s
Quality : High
Add ID3 tag : Yes
Command line compressor : D:\EAC\Flac\flac.exe
Additional command line options : -V -8 -T "Date=%year%" -T "Genre=%genre%" %source%

TOC of the extracted CD

Track | Start | Length | Start sector | End sector
---------------------------------------------------------
1 | 0:00.00 | 3:54.05 | 0 | 17554
2 | 3:54.05 | 4:30.60 | 17555 | 37864
3 | 8:24.65 | 3:26.50 | 37865 | 53364
4 | 11:51.40 | 3:50.20 | 53365 | 70634
5 | 15:41.60 | 6:15.45 | 70635 | 98804
6 | 21:57.30 | 3:24.35 | 98805 | 114139
7 | 25:21.65 | 4:53.02 | 114140 | 136116
8 | 30:14.67 | 4:15.58 | 136117 | 155299
9 | 34:30.50 | 4:36.00 | 155300 | 175999
10 | 39:06.50 | 3:18.62 | 176000 | 190911
11 | 42:25.37 | 5:31.40 | 190912 | 215776

Range status and errors

Selected range

Filename D:\Lossless\Little River Band - Where We Started From.wav

Peak level 97.2 %
Extraction speed 3.8 X
Range quality 100.0 %
Test CRC 68127CA1
Copy CRC 68127CA1
Copy OK

No errors occurred

AccurateRip summary

Track 1 cannot be verified as accurate (confidence 2) [A239BC9A], AccurateRip returned [AEA4BFF5] (AR v2)
Track 2 cannot be verified as accurate (confidence 2) [AD6B2AF8], AccurateRip returned [03EF8687] (AR v2)
Track 3 cannot be verified as accurate (confidence 2) [462A3EE0], AccurateRip returned [397C3DBC] (AR v2)
Track 4 cannot be verified as accurate (confidence 2) [A8910326], AccurateRip returned [A1B21487] (AR v2)
Track 5 cannot be verified as accurate (confidence 2) [DB0B83DA], AccurateRip returned [7C0CE8E9] (AR v2)
Track 6 cannot be verified as accurate (confidence 2) [1118CD41], AccurateRip returned [72D3F8D4] (AR v2)
Track 7 cannot be verified as accurate (confidence 2) [CAB5A6D9], AccurateRip returned [27ECB5DE] (AR v2)
Track 8 cannot be verified as accurate (confidence 2) [E2A76359], AccurateRip returned [5B495654] (AR v2)
Track 9 cannot be verified as accurate (confidence 2) [D08B61A4], AccurateRip returned [40DBB5E4] (AR v2)
Track 10 cannot be verified as accurate (confidence 2) [A50B1793], AccurateRip returned [EB765A46] (AR v2)
Track 11 cannot be verified as accurate (confidence 2) [DCBBEA2F], AccurateRip returned [5DF88159] (AR v2)

No tracks could be verified as accurate
You may have a different pressing from the one(s) in the database

End of status report

---- CUETools DB Plugin V2.1.3

[CTDB TOCID: 3POAL3RXYSAHnocV0CoEMLSq3Oo-] found, Submit result: 3POAL3RXYSAHnocV0CoEMLSq3Oo- has been confirmed
[f1633c1f] (1/1) Accurately ripped

==== Log checksum 8D6EFB1A2DDE97F125AAACE92DDBB7D9349D47C9D7E72D93CCC9D49818B90936 ====
Доп. информация:
Диск из личной коллекции, последний номерной альбом на данный момент.



Трекер:  [ 19-Сен-2012 15:44 ]

  

Скачать .torrent

Размер .torrent файла 15 KB


Размер: 373 MB
Хэш (hash) релиза: 9b3e42304b4299f6be59f07317b1010bcb6b4005

Еще никто не оставлял запись к записи скачать торрент = Little River Band = Where We Started From = 2001 = FLAC . Будь первым!

!Обратная связь