Скачать через торрент музыку Scherzoo бесплатно без регистрации torrent

Если у вас наблюдаются проблемы со скриншотами, переходом по ссылками, скачиванием торрентов - проблемы в блокировщике рекламы AdBlock. #хорошегоДня!


Статистика раздачи
Размер:  347 MB   |    Зарегистрирован:  4 года 10 месяцев   |    .torrent скачан:  18 раз   |   
Раздают:  1  
   
Загрузка...
 
Автор Сообщение

Galfimbul

avatar Galfimbul


SCHERZOO (François THOLLOT) — 02 (2012)

Жанр: Progressive rock/Zeuhl
Страна исполнителя: France
Год выпуска дискa: 2012
Производитель дисков: France (Soleil Zeuhl)
Номер по каталогу: SZ 31
Аудио кодек: FLAC
Тип рипа: image+.cue
Битрейт аудио: lossless
Продолжительность: 00:51:15
Наличие сканов в содержимом раздачи: да
Источник: моя коллекция CD

Tреклист:
01. Yin/Yang [07:37.640]
02. 02 [08:04.787]
03. M.A. Suite [07:52.293]
04. Six Feet Under [07:01.920]
05. Invasion [04:47.280]
06. Breaking Bad [06:06.933]
07. Vingt-Trois [04:20.653]
08. 18h09 [05:24.387]

Line-up:
Anthony Béard — bass
[b]François Mignot
— guitar
Jérémy Van Quackebeke — piano
Guillaume Lagache — alto saxophone
François Thollot — drums[/b]
REM GENRE "Progressive Rock/Zeuhl"
REM DATE 2012
REM DISCID 710C0308
REM COMMENT "ExactAudioCopy v0.99pb4"
PERFORMER "SCHERZOO"
TITLE "02"
FILE "SCHERZOO - 2012 - 02.wav" WAVE
  TRACK 01 AUDIO
    TITLE "Yin/Yang"
    PERFORMER "SCHERZOO"
    INDEX 01 00:00:00
  TRACK 02 AUDIO
    TITLE "02"
    PERFORMER "SCHERZOO"
    INDEX 01 07:37:48
  TRACK 03 AUDIO
    TITLE "M.A. Suite"
    PERFORMER "SCHERZOO"
    INDEX 01 15:42:32
  TRACK 04 AUDIO
    TITLE "Six Feet Under"
    PERFORMER "SCHERZOO"
    INDEX 01 23:34:54
  TRACK 05 AUDIO
    TITLE "Invasion"
    PERFORMER "SCHERZOO"
    INDEX 01 30:36:48
  TRACK 06 AUDIO
    TITLE "Breaking Bad"
    PERFORMER "SCHERZOO"
    INDEX 01 35:23:69
  TRACK 07 AUDIO
    TITLE "Vingt-Trois"
    PERFORMER "SCHERZOO"
    INDEX 01 41:30:64
  TRACK 08 AUDIO
    TITLE "18h09"
    PERFORMER "SCHERZOO"
    INDEX 01 45:51:38
Exact Audio Copy V0.99 prebeta 4 from 23. January 2008

Отчёт EAC об извлечении, выполненном 13. сентября 2012, 23:25

SCHERZOO / 02

Дисковод: TSSTcorpCD/DVDW SH-S183A   Adapter: 4  ID: 1

Режим чтения                 : Достоверность
Использование точного потока : Да
Отключение кэша аудио        : Да
Использование указателей C2  : Нет

Коррекция смещения при чтении                     : 6
Способность читать области Lead-in и Lead-out     : Нет
Заполнение пропущенных сэмплов тишиной            : Да
Удаление блоков с тишиной в начале и конце        : Нет
При вычислениях CRC использовались нулевые сэмплы : Да
Интерфейс                                         : Встроенный Win32-интерфейс для Win NT/2000

Выходной формат : Внутренние WAV-операции
Формат сэмплов  : 44.100 Гц; 16 бит; стерео

TOC извлечённого CD

     Трек |   Старт  | Длительность | Начальный сектор | Конечный сектор
    ---------------------------------------------------------------------
       1  |  0:00.00 |    7:37.48   |           0      |      34322
       2  |  7:37.48 |    8:04.59   |       34323      |      70681
       3  | 15:42.32 |    7:52.22   |       70682      |     106103
       4  | 23:34.54 |    7:01.69   |      106104      |     137747
       5  | 30:36.48 |    4:47.21   |      137748      |     159293
       6  | 35:23.69 |    6:06.70   |      159294      |     186813
       7  | 41:30.64 |    4:20.49   |      186814      |     206362
       8  | 45:51.38 |    5:24.29   |      206363      |     230691

Характеристики диапазона извлечения и сообщения об ошибках

Выбранный диапазон

     Имя файла D:\TEMP\SCHERZOO - 2012 - 02.wav

     Пиковый уровень 97.7 %
     Качество диапазона 99.9 %
     CRC теста 76852D98
     CRC копии 76852D98
     Копирование... OK

Ошибок не произошло

AccurateRip: сводка

Трек  1  нет в базе данных
Трек  2  нет в базе данных
Трек  3  нет в базе данных
Трек  4  нет в базе данных
Трек  5  нет в базе данных
Трек  6  нет в базе данных
Трек  7  нет в базе данных
Трек  8  нет в базе данных

Ни одного трека нет в базе AccurateRip

Конец отчёта


Трекер:  [ 19-Сен-2012 15:44 ]

  

Скачать .torrent

Размер .torrent файла 14 KB


Размер: 347 MB
Хэш (hash) релиза: b0e5acd01a3a8a35b88fc9c1c5a9173f4f34471d

Торренты, похожие на Scherzoo скачать торрент

Форум Название Автор Размер S L Добавлен
Rосk | Mеtаl | Аltеrnаtivе, Рunk, Indереndеnt (mр3) ·· (Avant-prog, Jazz-fusion, Zeuhl) Scherzoo (w. Dissonata): дискография (3 релиза, 2011–2015), MP3 (CBR 320 kbps) Galfimbul 419305758400 MB 0 0 1427055294

23:14

22-Мар-15

Еще никто не оставлял запись к записи скачать торрент Scherzoo . Будь первым!

!Обратная связь