Скачать через торрент музыку Gens De La Lune - Gens De La Lune - 2008, FLAC бесплатно без регистрации torrent

Если у вас наблюдаются проблемы со скриншотами, переходом по ссылками, скачиванием торрентов - проблемы в блокировщике рекламы AdBlock. #хорошегоДня!


Статистика раздачи
Размер:  422 MB   |    Зарегистрирован:  4 года 11 месяцев   |    .torrent скачан:  3 раза   |   
Раздают:  1  
   
Загрузка...
 
Автор Сообщение

Galfimbul

avatar Galfimbul


Gens De La Lune / Gens De La Lune
Жанр: Symphonic Prog
Страна-производитель диска: France
Год издания: 2008
Издатель (лейбл): AAA
Номер по каталогу: AAA014
Страна: France
Аудиокодек: FLAC (*.flac)
Тип рипа: image+.cue
Битрейт аудио: lossless
Продолжительность: 00:57:24
Источник (релизер): BeoKuzma
Наличие сканов в содержимом раздачи:
Треклист:
1. Cno peran
2. Loeil
3. Negblanc
4. Amours impudiques
5. Gens de la lune
6. Les vents de-la
7. Laissez-nous
8. Le guide
9. Satanas
10. Des yeux nouveau
Lossless Decoder version 20100711 (120.5)

XLD extraction logfile from 2011-05-28 18:55:44 +0600

Gens De La Lune / 2008 Gens De La Lune

Used drive : MATSHITA DVD-R UJ-898 (revision HC09)

Use cdparanoia mode : YES (CDParanoia III 10.2 engine)Disable audio cache : OK for the drive with cache less than 2750KBMake use of C2 pointers : NORead offset correction : 102Max retry count : 100Gap status : Analyzed, Appended

TOC of the extracted CD Track | Start | Length | Start sector | End sector --------------------------------------------------------- 1 | 00:00:00 | 04:50:10 | 0 | 21759 2 | 04:50:10 | 05:44:43 | 21760 | 47602 3 | 10:34:53 | 06:23:46 | 47603 | 76373 4 | 16:58:24 | 04:18:14 | 76374 | 95737 5 | 21:16:38 | 05:15:66 | 95738 | 119428 6 | 26:32:29 | 05:25:59 | 119429 | 143862 7 | 31:58:13 | 07:10:10 | 143863 | 176122 8 | 39:08:23 | 05:37:28 | 176123 | 201425 9 | 44:45:51 | 07:14:47 | 201426 | 234022 10 | 52:00:23 | 05:23:46 | 234023 | 258293

All Tracks Filename : /Users/Yuriy/Desktop/Gens De La Lune-2008/2008 Gens De La Lune.flac CRC32 hash : 30937985 CRC32 hash (skip zero) : 09683CF9 Statistics Read error : 0 Skipped (treated as error) : 0 Edge jitter error (maybe fixed) : 0 Atom jitter error (maybe fixed) : 0 Drift error (maybe fixed) : 0 Dropped bytes error (maybe fixed) : 0 Duplicated bytes error (maybe fixed) : 0

Track 01

Pre-gap length : 00:02:00

CRC32 hash : 8286B6E2 CRC32 hash (skip zero) : A453F61E AccurateRip signature : E2B0A716 ->Track not present in AccurateRip database. Statistics Read error : 0 Skipped (treated as error) : 0 Edge jitter error (maybe fixed) : 0 Atom jitter error (maybe fixed) : 0 Drift error (maybe fixed) : 0 Dropped bytes error (maybe fixed) : 0 Duplicated bytes error (maybe fixed) : 0

Track 02

Pre-gap length : 00:00:67

CRC32 hash : 6604BB0B CRC32 hash (skip zero) : F135A357 AccurateRip signature : 940B4607 ->Track not present in AccurateRip database. Statistics Read error : 0 Skipped (treated as error) : 0 Edge jitter error (maybe fixed) : 0 Atom jitter error (maybe fixed) : 0 Drift error (maybe fixed) : 0 Dropped bytes error (maybe fixed) : 0 Duplicated bytes error (maybe fixed) : 0

Track 03

CRC32 hash : 114F6976 CRC32 hash (skip zero) : 943E4A98 AccurateRip signature : 12E5A9D3 ->Track not present in AccurateRip database. Statistics Read error : 0 Skipped (treated as error) : 0 Edge jitter error (maybe fixed) : 0 Atom jitter error (maybe fixed) : 0 Drift error (maybe fixed) : 0 Dropped bytes error (maybe fixed) : 0 Duplicated bytes error (maybe fixed) : 0

Track 04

CRC32 hash : 7A3A656C CRC32 hash (skip zero) : 13E4F252 AccurateRip signature : 835865C5 ->Track not present in AccurateRip database. Statistics Read error : 0 Skipped (treated as error) : 0 Edge jitter error (maybe fixed) : 0 Atom jitter error (maybe fixed) : 0 Drift error (maybe fixed) : 0 Dropped bytes error (maybe fixed) : 0 Duplicated bytes error (maybe fixed) : 0

Track 05

Pre-gap length : 00:01:22

CRC32 hash : F9B0F267 CRC32 hash (skip zero) : 9651CD3B AccurateRip signature : 65E46E09 ->Track not present in AccurateRip database. Statistics Read error : 0 Skipped (treated as error) : 0 Edge jitter error (maybe fixed) : 0 Atom jitter error (maybe fixed) : 0 Drift error (maybe fixed) : 0 Dropped bytes error (maybe fixed) : 0 Duplicated bytes error (maybe fixed) : 0

Track 06

CRC32 hash : 5D31D942 CRC32 hash (skip zero) : 13580DB6 AccurateRip signature : 6AC21F9F ->Track not present in AccurateRip database. Statistics Read error : 0 Skipped (treated as error) : 0 Edge jitter error (maybe fixed) : 0 Atom jitter error (maybe fixed) : 0 Drift error (maybe fixed) : 0 Dropped bytes error (maybe fixed) : 0 Duplicated bytes error (maybe fixed) : 0

Track 07

CRC32 hash : 072A1E89 CRC32 hash (skip zero) : 5B3F837A AccurateRip signature : 4613192F ->Track not present in AccurateRip database. Statistics Read error : 0 Skipped (treated as error) : 0 Edge jitter error (maybe fixed) : 0 Atom jitter error (maybe fixed) : 0 Drift error (maybe fixed) : 0 Dropped bytes error (maybe fixed) : 0 Duplicated bytes error (maybe fixed) : 0

Track 08

CRC32 hash : BB70C022 CRC32 hash (skip zero) : EA8D5589 AccurateRip signature : EB20F4BA ->Track not present in AccurateRip database. Statistics Read error : 0 Skipped (treated as error) : 0 Edge jitter error (maybe fixed) : 0 Atom jitter error (maybe fixed) : 0 Drift error (maybe fixed) : 0 Dropped bytes error (maybe fixed) : 0 Duplicated bytes error (maybe fixed) : 0

Track 09

CRC32 hash : A2C9DF26 CRC32 hash (skip zero) : 37699B96 AccurateRip signature : E45AC7A7 ->Track not present in AccurateRip database. Statistics Read error : 0 Skipped (treated as error) : 0 Edge jitter error (maybe fixed) : 0 Atom jitter error (maybe fixed) : 0 Drift error (maybe fixed) : 0 Dropped bytes error (maybe fixed) : 0 Duplicated bytes error (maybe fixed) : 0

Track 10

Pre-gap length : 00:03:25

CRC32 hash : B6D0FA1E CRC32 hash (skip zero) : C7B9ED58 AccurateRip signature : 46D228C0 ->Track not present in AccurateRip database. Statistics Read error : 0 Skipped (treated as error) : 0 Edge jitter error (maybe fixed) : 0 Atom jitter error (maybe fixed) : 0 Drift error (maybe fixed) : 0 Dropped bytes error (maybe fixed) : 0 Duplicated bytes error (maybe fixed) : 0

No errors occurred

End of status report
REM GENRE "Symphonic Prog/France"REM DATE 2008PERFORMER "Gens De La Lune"TITLE "Gens De La Lune"FILE "2008 Gens De La Lune.flac" WAVE TRACK 01 AUDIO TITLE "C'no Peran" INDEX 01 00:00:00 TRACK 02 AUDIO TITLE "L'oeil" INDEX 00 04:49:18 INDEX 01 04:50:10 TRACK 03 AUDIO TITLE "Neg'blanc" INDEX 01 10:34:53 TRACK 04 AUDIO TITLE "Amours Impudiques" INDEX 01 16:58:24 TRACK 05 AUDIO TITLE "Gens De La Lune" INDEX 00 21:15:16 INDEX 01 21:16:38 TRACK 06 AUDIO TITLE "Les Vents De La" INDEX 01 26:32:29 TRACK 07 AUDIO TITLE "Laissez-Nous" INDEX 01 31:58:13 TRACK 08 AUDIO TITLE "Le Guide" INDEX 01 39:08:23 TRACK 09 AUDIO TITLE "Satanas" INDEX 01 44:45:51 TRACK 10 AUDIO TITLE "Des Yeux Nouveaux" INDEX 00 51:56:73 INDEX 01 52:00:23
-----------------------

DON'T MODIFY THIS FILE

-----------------------

PERFORMER: auCDtect Task Manager, ver. 1.5.1RC6 build 1.5.1.7Copyright (c) 2008-2010 y-soft. All rights reservedhttp://y-soft.org

ANALYZER: auCDtect: CD records authenticity detector, version 0.8.2Copyright (c) 2004 Oleg Berngardt. All rights reserved.Copyright (c) 2004 Alexander Djourik. All rights reserved.

FILE: 2008 Gens De La Lune.flac Size: 433117154 Hash: 2D4D5C550CED98C21F4B334025AB7FFA Accuracy: -m0 Conclusion: CDDA 100% Signature: D0CCB10398DED6371C3E8CF3996B20529DECA488
Rating 3.64 from 15 ratings according to rateyourmusic.com
Rating 3.85 from 4 ratings according to pogarchives.com
"Back in the seventies a certain band from France made music that had a link with Genesis music wise. Ange is the name of this fantastic progressive rock band that impressed me so much in those days. Albums such as Par Les Files De Mandrin, Guet-Apens and Emile Jacotey are real masterpieces which you can compare with albums such as Foxtrot, Selling England By The Pound or Nursery Crime. Lead singer Christian Decamps had the same kind of charisma as Peter Gabriel, he only sung in his own native language. His brother Francis Decamps played the keyboards and used a lot of mellotron sounds in the band’s compositions. But the band moved into another direction, just like Genesis, and sounded differently on their later releases.
Francis left the band after 25 years and I did not hear anything from him until recently. He formed a band of his own and named it Gens De La Lune and made an album with the same title. It gives me a lot of pleasure to tell you that the sound of the old Ange albums reminds me a lot of this first release. The mellotron samples are back in full glory and are used on most of the tracks. Boy, did I miss them on the recent Ange releases! The band also has a very strong singer. I have no problem at all that Jean Phillipe Suzan sings like Christian in his native tongue. This is just the language that this kind of music needs. It has all the drama, emotion and passion that suits the music perfectly. Progressive rock and the French chanson are for me a very enjoyable musical mix. The album opens with a very nice tune that has a great sing-a-long line. C’No Peran has also great bagpipe sounds coming from the keyboards. It certainly gives the track the feeling as if you are in the highlands yourself. The second track L’Ceil is the first piece that reminded me of the old Ange sound. It has a lot of pathos like in the old days and the mellotron samples dominate the song. However, the third song Neg’Blanc starts as a piece of music which could have been taken from a new Ange album. Some third world rhythms are to blame. But no worries, the old Ange sound returns very fast and stays until the end. More strong pieces follow and the highlight is the sixth song Les Vents De La. On the entire album we hear the excellent guitarist Damien Chopard. On this track he manages to bring me in prog heaven with his brilliant solo. The high level of music stays after this piece and makes me realise that no weak tracks are on this fine debut album made by Gens De La Lune. So I can only say: welcome back Francis. You and your fellow musicians proved once again that fantastic progressive rock can be made in France. You certainly made it possible to relive the old days of Ange on this outstanding album. Bravo!"
Henri Strik (edited by Astrid de Ronde)
www.progwalhalla.com

И здесь http://www.progarchives.com/artist.asp?id=6711
Francis Decamps - Vocals, Keyboards
Bernard Reichstadt - Drums
Jean Philippe Suzan - Vocals, Percussions
James Kass - Bass
Damien Chopard - Guitar
Симпатичный симфо-прог "Лунатиков", отделившихся от шестикратно-золотоальбомного "Ангела" из "Лягушатии"

Трекер:  [ 19-Сен-2012 15:43 ]

  

Скачать .torrent

Размер .torrent файла 17 KB


Размер: 422 MB
Хэш (hash) релиза: aa6a2a9fa8742a5711c8de63402711ac9a164069

Еще никто не оставлял запись к записи скачать торрент Gens De La Lune - Gens De La Lune - 2008, FLAC . Будь первым!

!Обратная связь