Скачать через торрент музыку 10cc - Windows In The Jungle - 1983 бесплатно без регистрации torrent

Если у вас наблюдаются проблемы со скриншотами, переходом по ссылками, скачиванием торрентов - проблемы в блокировщике рекламы AdBlock. #хорошегоДня!


Статистика раздачи
Размер:  255 MB   |    Зарегистрирован:  4 года 11 месяцев   |    .torrent скачан:  31 раз   |   
Раздают:  1  
   
Загрузка...
 
Автор Сообщение

Galfimbul

avatar Galfimbul


10cc / Windows In The Jungle

Жанр: Pop Rock, Clasic Rock, Art Rock
Страна-производитель диска: Japan
Год издания: 1983
Издатель (лейбл): Mercury
Номер по каталогу: PHCR-6038
Страна: UK
Аудиокодек: FLAC (*.flac)
Тип рипа: image+.cue
Битрейт аудио: lossless
Продолжительность: 00:42:07
Источник (релизер): lnciscml
Наличие сканов в содержимом раздачи: да
Треклист:
01. 24 Hours [08:06]
02. Feel The Love - Oomachasaooma [05:08]
03. Yes I Am! [06:01]
04. Americana Panorama [03:42]
05. City Lights [03:31]
06. Food For Thought [03:32]
07. Working Girls [04:24]
08. Taxi! Taxi! [07:38]
Exact Audio Copy V1.0 beta 3 from 29. August 2011

Отчёт EAC об извлечении, выполненном 29. февраля 2012, 21:09

10cc / Windows In The Jungle

Дисковод: MATSHITADVD-RAM UJ890AS Adapter: 0 ID: 0

Режим чтения : ДостоверностьИспользование точного потока : ДаОтключение кэша аудио : ДаИспользование указателей C2 : Нет

Коррекция смещения при чтении : 102Способность читать области Lead-in и Lead-out : НетЗаполнение пропущенных сэмплов тишиной : ДаУдаление блоков с тишиной в начале и конце : НетПри вычислениях CRC использовались нулевые сэмплы : ДаИнтерфейс : Встроенный Win32-интерфейс для Win NT/2000

Выходной формат : Пользовательский кодировщикВыбранный битрейт : 128 kBit/sКачество : ВысокийДобавление ID3-тега : НетУтилита сжатия : C:\Program Files (x86)\Exact Audio Copy\Flac\flac.exeДополнительные параметры : -V -8 -T "Date=%year%" -T "Genre=%genre%" %source%

TOC извлечённого CD

Трек | Старт | Длительность | Начальный сектор | Конечный сектор --------------------------------------------------------------------- 1 | 0:00.00 | 8:08.02 | 0 | 36601 2 | 8:08.02 | 5:09.53 | 36602 | 59829 3 | 13:17.55 | 6:01.05 | 59830 | 86909 4 | 19:18.60 | 3:43.50 | 86910 | 103684 5 | 23:02.35 | 3:31.42 | 103685 | 119551 6 | 26:34.02 | 3:34.00 | 119552 | 135601 7 | 30:08.02 | 4:26.48 | 135602 | 155599 8 | 34:34.50 | 7:38.42 | 155600 | 189991

Характеристики диапазона извлечения и сообщения об ошибках

Выбранный диапазон

Имя файла C:\Program Files (x86)\Exact Audio Copy\Flac\10cc - Windows In The Jungle.wav

Пиковый уровень 99.9 % Скорость извлечения 2.4 X Качество диапазона 100.0 % CRC теста EE35E521 CRC копии EE35E521 Копирование... OK

Ошибок не произошло

Конец отчёта

==== Контрольная сумма отчёта ADC9E5E5CFCB70A24EFC90EE31987BE2F54C9F6308F6A348CC2CDA0290B8AA19 ====
REM GENRE RockREM DATE 1983REM DISCID 6E09E508REM COMMENT "ExactAudioCopy v1.0b3"PERFORMER "10cc"TITLE "Windows In The Jungle"FILE "10cc - Windows In The Jungle.flac" WAVE TRACK 01 AUDIO TITLE "24 Hours" PERFORMER "10cc" INDEX 01 00:00:00 TRACK 02 AUDIO TITLE "Feel The Love - Oomachasaooma" PERFORMER "10cc" INDEX 00 08:06:70 INDEX 01 08:08:02 TRACK 03 AUDIO TITLE "Yes I Am!" PERFORMER "10cc" INDEX 00 13:16:40 INDEX 01 13:17:55 TRACK 04 AUDIO TITLE "Americana Panorama" PERFORMER "10cc" INDEX 01 19:18:60 TRACK 05 AUDIO TITLE "City Lights" PERFORMER "10cc" INDEX 00 23:01:57 INDEX 01 23:02:35 TRACK 06 AUDIO TITLE "Food For Thought" PERFORMER "10cc" INDEX 01 26:34:02 TRACK 07 AUDIO TITLE "Working Girls" PERFORMER "10cc" INDEX 00 30:06:65 INDEX 01 30:08:02 TRACK 08 AUDIO TITLE "Taxi! Taxi!" PERFORMER "10cc" INDEX 00 34:32:52 INDEX 01 34:34:50
----------------------------------------------------------------Filename : 10cc - Windows In The Jungle.flac (253.34mb)Source : CDDA (probability 99%)Detect Mode : 8Date : 14.09.2012 08-23-46----------------------------------------------------------------File Generated by Ape Batch Check 1.4a (build 29.04.2008)

Monkey's Audio : (c) Matthew T. Ashland; http://www.monkeysaudio.com/auCDtect.exe : (c) Oleg Berngardt; Alexander Djourik; http://www.true-audio.comApe Batch Check : Bete Noire; http://betenoire.narod.ru/
Доп. информация: All songs by Eric Stewart and Graham Gouldman
10cc (с англ. - 10 кубических сантиметров) - британская группа, образованная в 1972 году в Стокпорте, Англия, и исполнявшая софт-/арт-/поп-рок с остроумными, ироничными текстами.
Windows in the Jungle is the ninth studio album by British pop band 10cc. It was released in October 1983 and was the last album by the band for nine years.
Eric Stewart recalled that the finished album did not meet his initial expectations: "Windows started as a concept album and I'm sorry I didn't pursue that goal, the pressure for the hit single always got in the way with 10cc albums. I longed to be like Pink Floyd and just go for large musical statements like "One Night in Paris" and "Feel the Benefit", but we were locked onto the singles roundabout, the 'quick buck', and it was impossible to break free at the time. The album was not really very successful, 10cc wise, anywhere in the rest of the world really, but in terms of sales today it was a minor hit." [2]

Cover for Single "Food For Thought"
Two singles were released from the album, "24 Hours" in early 1983, and "Feel The Love (Oomachasaooma)", which was given a tennis-themed music video by former 10cc members Godley and Creme. Neither reached the charts. A limited edition 10" version of "24 Hours" was released, featuring live versions of "I'm Not In Love" and "Dreadlock Holiday" from the 10th Anniversary tour in 1982. A third single, released only in Holland, was "Food For Thought" coupled with the non-album "The Secret Life Of Henry". The latter became available on CD in 2006 on the Japanese limited edition version of the album.

(c) wikipedia.org
Eric Stewart - lead vocals, guitars, keyboards, percussion
Graham Gouldman - vocals,bass, guitars, percussion
Steve Gadd - drums, percussion
Simon Phillips - drums
Rick Fenn - vocals, lead guitar, acoustic guitar
Stuart Tosh - vocals, percussion, marimba, drums (on "Food For Thought")
Vick Emerson - keyboards
Mike Timony - keyboards
Mel Collins - saxophones


Трекер:  [ 19-Сен-2012 15:43 ]

  

Скачать .torrent

Размер .torrent файла 21 KB


Размер: 255 MB
Хэш (hash) релиза: 8e1ef1e433581fe59ac0938e00420c08ff656a4d

Еще никто не оставлял запись к записи скачать торрент 10cc - Windows In The Jungle - 1983 . Будь первым!

!Обратная связь